This file was generated by Ched 2.7.0.0.
#TITLE ""
#ARTIST ""
#DESIGNER ""
#DIFFICULTY 0
#PLAYLEVEL
#SONGID ""
#WAVE ""
#WAVEOFFSET 0
#JACKET ""
#REQUEST "ticks_per_beat 480"
#00002: 4
#BPM01: 124
#00008: 01
#TIL00: ""
#VOLUME: ""
#HISPEED 00
#MEASUREHS 00
#0351f:11
#03518:1313
#03515:000000000013000013000000
#03512:13
#0351b:00230023
#03118:000000000013000013000000
#0311b:13
#03115:13001323
#03112:00230000
#03218:13001323
#03212:13
#03215:000000000013000013000000
#0321b:00230000
#04318:13
#0431f:21
#04310:0041
#04415:00130000
#04518:00130000
#04712:13000013
#04718:000000000013000000130000
#04715:0013
#05715:13535363
#06019:12525262
#05915:12525262
#05818:13535363
#05618:00230013
#0561b:000000000033130000000000
#05615:002300000000
#04815:13
#04812:00130000
#04814:00000013
#0481b:13
#0481a:00000013
#04819:0013
#04813:0013
#04818:00130000
#00419:13
#00418:00130000
#00414:001300000000
#00315:000000000000000000000013
#00318:00130013
#00314:000013
#03916:00000012
#03919:0052
#0391a:000000000052000000000000
#0391b:005200
#0341b:13
#03418:000000000013000013000000
#03412:13001323
#03415:00230000
#03410:41
#03315:000000000013000013000000
#0331b:13001323
#03312:13
#03318:00230000
#02715:000000000013000013000000
#02718:0013
#0271a:00000024
#02710:41
#02518:00131300
#02515:000000000013000000000000
#02512:00000024
#02415:00140014
#02412:1414
#0241a:00000024
#02315:00140014
#02312:1414
#0231a:00000024
#01818:130000000013000000000000
#01815:0013
#0181b:00000023
#01812:00230000
#01715:000000000000130000000013
#01718:130000000013000000000000
#01712:00230000
#0171b:00000023
#0161b:0013
#01612:13
#01615:000000000013000000230000
#01618:00230000
#0151b:0013
#01518:000000230000000000000013
#01515:000000000013000000230000
#01512:13
#0551b:000000330013000000000023
#05518:13
#05512:000000000000000000000023
#05415:00130000
#05418:000013
#05318:00130000
#05315:000013
#05112:0013
#03615:1313
#03618:000000000013000013000000
#0361b:13
#03612:00230023
#02815:000013
#02818:0013
#0281a:00000024
#0261b:0013
#02615:00130000
#02618:13
#02612:00000024
#02012:00000014
#0201a:00000014
#02217:00140014
#0221a:1414
#02212:00000024
#01918:13
#0191b:0013
#01915:13
#01912:0013
#01415:0013
#01418:130000000013000000000000
#0141b:00000023
#01412:00230000
#01315:000000000000130000000013
#01318:130000000013000000000000
#01312:00230000
#0131b:00000023
#01310:41
#01012:13
#01015:000000330013000000000000
#0091b:13
#00918:000000330013000000000013
#00815:13
#00812:000033330013000000000000
#00712:13
#00715:000000330013000000000000
#00718:000000000000000000000013
#00618:13
#0061b:000000330013000000000000
#0051b:13
#00518:000000330013000000000000
#00515:000000000000000000000013
#00510:41
#00215:00130000
#00218:000013
#03718:0000001400000014000000140000001400000014000000140000001400000014
#03719:24141414141414141414141414141414
#0371a:0014000000140000001400000014000000140000001400000014000000140000
#01119:001400140014
#0111a:240014
#01118:001400
#04215:000000000000000000000013
#0421a:00000024
#04212:0024
#04218:00240000
#04216:52
#01214:00120012
#0121a:0012
#00118:00130000
#00115:000013
#02117:00140014
#0211a:1414
#02112:00000024
#02110:41
#05018:00001313
#05015:000000000023000023000023
#04915:00001313
#04918:000000000023000023000023
#03816:000000120000000000000052
#03815:000052000052
#03814:000000000052000000520000
#03813:000000525200
#03812:000000000000005200000000
#03018:26
#02915:2333
#02918:00330033
#05218:00260000
#04115:000000000052005200000052
#04114:000052005252
#04113:00520052
#04116:0052
#04018:0052
#04019:000000000052000000000000
#0401a:005200
#03052:00160000
#03058:16
#02552:14
#05452:000000000013000000000000
#05455:00630000
#0535b:000000000013000000000000
#05358:00530000
#04955:00130000
#0495b:00130000
#04958:000000000000000000000053
#04755:00130000
#04752:63
#0455b:000000000013000000000000
#04558:00630000
#04452:000000000013000000000000
#04455:00530000
#02058:13
#02055:13
#00252:000000000013000000000000
#00255:00630000
#0015b:000000000013000000000000
#00158:00530000
#00455:00000013
#05252:16
#05258:00160000
#0435b:000000000013000000000000
#04358:63
#04256:12
#03759:64646464646464646464646464646464
#03758:0000002400000024000000240000002400000024000000240000002400000024
#0375a:0024000000240000002400000024000000240000002400000024000000240000
#0115a:240024
#01159:005400540054
#01158:002400
#05658:00530063
#0565b:0063
#05055:000000000000000000000063
#00358:00530000
#02455:00640064
#02452:6464
#02355:00640064
#02352:6464
#0555b:000000000063000000000000
#05558:53
#05152:0023
#02257:00540054
#0225a:5454
#01958:53
#0195b:0023
#01955:63
#01952:0023
#01052:63
#01055:000000000063000000000000
#0095b:53
#00958:000000000053000000000000
#00855:53
#00852:000000000053000000000000
#00752:63
#00755:000000000063000000000000
#00658:63
#0065b:000000000063000000000000
#0055b:53
#00558:000000000053000000000000
#01358:13
#02157:00540054
#0215a:5454
#001380:13330000
#0013b0:000000000023000000000000
#001380:000000000000000000130033
#002380:23
#002351:13330000
#002321:000000000023000000000000
#002351:000000000000000000130033
#003351:23
#003380:13330000
#0033b0:000000000023000000000000
#004350:000000000013000000230000
#0053b0:13000023
#005380:000000330033000000000000
#006380:13000023
#0063b0:000000330033000000000000
#007320:13000023
#007350:000000330033000000000000
#008350:13000023
#008320:000033330033000000000000
#0093b0:13000023
#009380:000000330033000000000000
#010320:13000023
#010350:000000330033000000000000
#0113a0:140054
#011390:005400540054
#011380:005400
#012380:24
#019380:13
#0193b0:0053
#020380:23
#019351:13
#019321:0053
#020351:23
#0213a1:1434
#021371:00340034
#0223a1:3434
#022371:00340034
#0233a1:24
#023320:1434
#023350:00340034
#024320:3434
#024350:00340034
#025320:24
#027380:13230000
#028350:13230000
#029350:1333
#030320:00260000
#029381:13330033
#030381:26
#037390:14545454545454545454545454545454
#0373a0:0054000000540000005400000054000000540000005400000054000000540000
#037380:0000005400000054000000540000005400000054000000540000005400000054
#038390:24
#0393b0:122200
#0403a0:122200
#040360:000000000000000000120032
#041330:00220000
#043380:13
#0433b0:000000330023000000000000
#043350:000000000000000013330000
#043320:000000000000000000000033
#044320:330000000023000000000000
#044350:000033330000000000000000
#044380:000000000000000013330000
#0443b0:000000000000000000000033
#0453b0:330000000023000000000000
#045380:000033330000000000000000
#045350:000000000000000013330000
#045320:000000000000000000000033
#046320:330000000033330000000033
#046350:000033330000000033330000
#047320:33
#047350:00230000
#049350:13230000
#0493b1:13230000
#049381:000000000000000000000013
#0503b1:00230000
#050351:000000000000000000000013
#051321:0053
#052321:26
#053381:13330000
#0533b1:000000000023000000000000
#053381:000000000000000000130033
#054381:23
#054350:13330000
#054320:000000000023000000000000
#054350:000000000000000000130033
#055350:23
#055381:13000023
#0553b1:000000330033000000000000
#056381:00130033
#0563b1:000000000033330000000000
#0573b1:23
#038960:000000120000000000000022
#038920:000000000000005200000000
#0399b0:001200
#039990:0022
#0409a0:001200
#040980:0022
#041930:00120052
#041960:0052
#042960:22
#057950:13000023
#058980:13000023
#059950:12000022
#060990:12000022
