This file was generated by Ched 2.7.0.0.
#TITLE ""
#ARTIST ""
#DESIGNER ""
#DIFFICULTY 0
#PLAYLEVEL
#SONGID ""
#WAVE ""
#WAVEOFFSET 0
#JACKET ""
#REQUEST "ticks_per_beat 480"
#00002: 4
#BPM01: 124
#00008: 01
#TIL00: ""
#VOLUME: ""
#HISPEED 00
#MEASUREHS 00
#0011a:1414
#00112:00140014
#00214:00140014
#00218:1414
#00514:0014
#0051a:24
#00510:41
#0061a:14
#00614:0014
#00718:14
#00712:0014
#00818:14
#00812:0014
#0091a:14
#00916:0014
#01012:14
#01016:0014
#01118:00140000
#01119:0014
#0111a:24000014
#0211a:14141424
#02110:41
#02214:14141424
#02318:14141424
#02412:14141424
#02917:0014
#0291a:14
#03312:00140014
#03318:24
#03114:00140014
#0311a:24
#03214:00140014
#0321a:24
#03412:00140014
#03418:24
#03410:41
#03514:00140014
#0351f:11
#0351a:24
#03614:00140014
#0361a:24
#0151a:00140014
#01514:24
#01318:00140014
#01312:24
#01310:41
#01418:00140014
#01412:24
#0161a:00140014
#01614:24
#01718:00140014
#01712:24
#01818:00140014
#01812:24
#01912:14
#01915:0014
#03718:00140000
#03719:0014
#0371a:24000014
#03812:00140000
#03818:0014
#03814:00000014
#03914:00000014
#04012:00000014
#04318:00140014
#04314:0014
#04312:26
#0431f:21
#04310:0041
#04412:1414
#0441a:00140014
#04514:14
#0451a:00140000
#04512:0014
#04518:00000014
#04614:14
#0461a:00140000
#04612:0014
#04618:00000014
#04714:14000014
#04718:0014
#0481a:14
#04812:00140000
#04818:0014
#04814:00000014
#04914:0014
#04918:00000014
#05018:0014
#05014:00000014
#05314:00140014
#05318:24
#05412:00140014
#0541a:24
#05514:00140014
#05518:24
#05618:00140000
#05616:0014
#05614:00000014
#0561a:24
#0251a:14140000
#02514:00001424
#02618:14140000
#02612:00001424
#02718:14
#02714:0014
#0271a:00000024
#02710:41
#02814:14
#02818:0014
#02812:00000024
#0511a:14
#05117:0014
#05118:00340034
#0411a:14
#04116:00140014
#04112:0014
#0421a:14
#0301a:24
#03012:00240000
#0521a:24
#05212:00240000
#0115a:54000024
#01159:0054
#01158:00240000
#02957:0024
#0295a:54
#0305a:14
#03052:00140000
#01952:64
#01955:0024
#02052:14
#03758:00240000
#03759:0054
#0375a:54000024
#04352:16
#04754:54
#0525a:14
#05252:00140000
#02758:54
#02854:64
#0515a:54
#05157:0024
#0425a:54
#0033a0:14340024
#004320:14340024
#0113a0:14000054
#011380:00540000
#011390:0054
#012380:24
#019320:14
#019350:0054
#020320:24
#027380:14
#0273a0:00240000
#028340:14
#028320:00240000
#0293a0:14
#029370:0054
#0303a0:24
#0373a0:14000054
#037380:00540000
#037390:0054
#038380:24
#0393a0:1424
#040380:1424
#0423a0:14
#042380:00000024
#047340:14
#047320:00240000
#0493a0:14240000
#050320:14240000
#0513a0:14
#051380:00340034
#051370:0034
#0523a0:24
#057320:14343424
#0583a0:14343424
#059340:14343424
#060380:14343424
