This file was generated by Ched 2.7.0.0.
#TITLE ""
#ARTIST ""
#DESIGNER ""
#DIFFICULTY 0
#PLAYLEVEL
#SONGID ""
#WAVE ""
#WAVEOFFSET 0
#JACKET ""
#REQUEST "ticks_per_beat 480"
#00002: 4
#BPM01: 140
#00008: 01
#TIL00: ""
#VOLUME: ""
#HISPEED 00
#MEASUREHS 00
#0401f:11
#00018:14
#00214:14
#0121a:14
#01210:41
#0131a:14
#01412:14
#01512:14
#01618:14
#01718:14
#01814:14
#01914:14
#02018:2616
#02010:41
#02212:1616
#02418:1616
#02512:1616
#02618:1616
#03012:1616
#03118:1616
#03412:1616
#03518:1616
#03614:14
#03610:41
#03714:14
#03818:14
#03918:14
#04818:0016
#0481f:21
#04812:26
#05012:0016
#05018:16
#05212:1616
#05210:41
#05318:1616
#05418:0016
#05412:16
#05818:16
#05812:0016
#05918:16
#05912:0016
#06218:16
#06212:0016
#06318:16
#06312:0016
#06818:14
#06914:14
#0701a:14
#0661a:14
#06712:14
#06514:14
#06418:14
#06410:41
#02810:41
#0043a0:14
#0053a0:24
#006320:14
#007320:24
#008380:14
#009380:24
#010340:14
#011340:24
#021380:1626
#023320:1626
#027380:1626
#028320:1626
#029380:1626
#032320:1626
#033380:1626
#040320:14
#041320:24
#0423a0:14
#0433a0:24
#044340:14
#045340:24
#046380:14
#047380:24
#049320:1626
#051380:1626
#055320:1626
#056380:1626
#057320:1626
#060380:1626
#061320:1626
#071320:1400000000003424
