This file was generated by Ched 2.7.0.0.
#TITLE ""
#ARTIST ""
#DESIGNER ""
#DIFFICULTY 0
#PLAYLEVEL
#SONGID ""
#WAVE ""
#WAVEOFFSET 0
#JACKET ""
#REQUEST "ticks_per_beat 480"
#00002: 4
#BPM01: 140
#00008: 01
#TIL00: ""
#VOLUME: ""
#HISPEED 00
#MEASUREHS 00
#0401f:11
#04017:00130013
#04012:23130013
#04019:0000001300000000
#0401b:0013
#04016:0013
#04014:0000000000000013
#02012:00000013000000000000130000001300
#0201b:1300001300000000
#02017:0000000013000013
#02016:23
#02010:41
#02114:0013000000000000
#02116:00130000
#02112:0000001300000000
#02115:00000000000000000000000000130000
#02118:0000000000000013
#0211b:00130000
#02117:0000001300000000
#02416:0013000013000000
#0241b:0013000023000000
#02417:1300000000130000
#02412:2300000000130000
#02512:1313
#02517:1313
#02519:0013000000130000
#0251b:00130013
#02516:00130000
#02514:0000001300000000
#02515:00000000000000000000000000130000
#02518:0000000000000013
#03019:1200000000130000
#03018:0014000000000000
#03016:0000000012000013
#0301b:0000000000000013
#03419:1200000000130000
#03418:0014000000000000
#03416:0012
#03412:0000000000000013
#03417:0000000000000013
#03614:1200000000120000
#03612:0000120000000012
#0361c:0012
#0361a:12000012
#03618:00120000
#03610:41
#03716:12
#0371c:1212
#03712:0000120000000012
#03714:0000000000120000
#0371a:00000012
#0381c:0012000012000000
#03814:0000000000120000
#0381a:00000012
#03812:0000120000000012
#03818:00120000
#03916:1223
#0391c:12
#03912:00120000
#0391a:0000001200000000
#0391b:0013
#03917:00000023
#04112:1300130013000013
#04118:0013000000000000
#0411b:13131313
#04115:0000001300000000
#0421b:1313
#04216:1313
#04214:0013000000130000
#04212:00130013
#04217:00130013
#04219:0000001300000013
#0431b:13131300
#04312:13130000
#04316:0014001413000000
#04317:00000013
#04412:1313
#04414:0013000000000000
#0441b:00130000
#04419:0000001300000000
#04416:00130000
#04417:0013
#04415:00000013
#04418:0000000000000013
#04617:2313
#0461b:00130000
#04614:0000001300000000
#04612:1323
#04616:00000013
#04619:0000000000000013
#0471b:0000130000130000
#04712:1300000000130000
#04719:0013000000000000
#04718:0000000013001313
#04715:00000000000013000000000000130000
#04717:23
#00012:12120000
#00014:00000000000000120000000000000000
#00018:16
#0011c:12000012000000000000000000000000
#00118:00000012
#0011a:0000000000000012
#00112:16
#00212:12120000
#00214:00000000000000120000000000000000
#00218:16
#0031c:12000012000000000000000000000000
#00318:00000012
#0031a:0000000000000012
#00312:16
#00412:13000000000013000000001300000000
#0041b:1313
#00417:00000000000013000000001300000000
#00416:0000000013000013
#0051b:00000013000000001300000000000000
#00512:13000013
#00516:00000013000000001300000000000000
#00517:1300001300000000
#0121b:00131313
#01212:00131313
#01218:0000001300000000
#01215:0000000000130000
#01216:13
#01210:41
#01317:00130013
#0131b:0000001300000013
#01312:1313
#01316:0013000000130000
#0141b:00131313
#01412:13131313
#01415:0000001300000000
#01418:0000000000130000
#0151b:0013
#01515:0000130000130000
#01512:00000013
#01518:13000013
#01612:1300000000000013
#01616:00130013
#01617:0000000013000013
#0161b:00130000
#01718:00130000
#01715:0000001300001300
#01712:0013
#0171b:0000000013000013
#01716:00130000000000000000000000000000
#01816:1400141400140000
#01812:2300000000130000
#0181b:0000002300000013
#01912:0013000000000000
#01918:00000000130000000013000000130000
#01915:00000000001300001300000000001300
#0191b:00000000000000130000000000000000
#0221b:00000013000000000000130000001300
#02212:1300001300000000
#02216:0000000013000013
#02217:23
#02319:0013000000000000
#02317:00130000
#0231b:0000001300001300
#02316:0000001300001300
#02312:0000130000130000
#02612:23000013000000000000130000001300
#0261b:1300001300000000
#02617:0000000013000013
#02714:0013000000000000
#02716:00130000
#02712:0000001300001300
#02717:0000001300001300
#0271b:0000130000130000
#03119:0013000000000000
#03117:00130000
#0311b:0000001300001300
#03116:0000001300001300
#03112:0000130000130000
#02914:0000130000000013
#02916:13000000000000000013000000000000
#02912:0000001300000000
#0291b:13000013
#02917:0013001300000000
#02814:0000130000000013
#02816:13000000000000000013000000000000
#02812:0000001300000000
#0281b:13000013
#02817:0013001300000000
#02810:41
#03319:0000130000000013
#03317:13000000000000000013000000000000
#0331b:0000001300000000
#03312:13000013
#03316:0013001300000000
#03219:0000130000000013
#03217:13000000000000000013000000000000
#0321b:0000001300000000
#03212:13000013
#03216:0013001300000000
#03514:0013000000000000
#03516:00130000
#03512:0000001300001300
#03517:0000001300001300
#0351b:0000130000130000
#0451b:1300130013000013
#04515:0013000000000000
#04512:13131313
#04518:0000001300000000
#04812:00000023000000001300000000001300
#0481b:1300001300000000
#04817:00000013000000001300000000001300
#0481f:21
#04816:2300002300000000
#04914:0013000000000000
#04916:00130000
#04912:0000001300000000
#04915:00000000000000000000000000130000
#04918:0000000000000013
#0491b:00130000
#04917:0000001300000000
#05012:1300001300000000
#05016:00000013000000001300000000001300
#0501b:00000023000000001300000000001300
#05017:2300002300000000
#05216:0013000013000000
#0521b:0013000023000000
#05217:1300000000130000
#05212:2300000000130000
#05210:41
#05312:1313
#05317:1313
#05319:0013000000130000
#0531b:00130013
#05316:00130000
#05314:0000001300000000
#05315:00000000000000000000000000130000
#05318:0000000000000013
#05119:0013000000000000
#05117:00130000
#0511b:0000001300001300
#05116:0000001300001300
#05112:0000130000130000
#05412:00000023000000001300000000001300
#05417:00000013000000001300000000001300
#0541b:1300001300000000
#05416:2300002300000000
#05514:0013000000000000
#05516:00130000
#05512:0000001300001300
#05517:0000001300001300
#0551b:0000130000130000
#0581b:0000000000000013
#05816:0000000022000013
#05818:0014000000000000
#05819:2200000023130000
#05814:24
#05919:0013000000000000
#05917:00130000
#0591b:0000001300001300
#05916:0000001300001300
#05912:0000130000130000
#05714:0000130000000013
#05716:13000000000000000013000000000000
#05712:0000001300000000
#0571b:13000013
#05717:0013001300000000
#05614:0000130000000013
#05616:13000000000000000013000000000000
#05612:0000001300000000
#0561b:13000013
#05617:0013001300000000
#06119:0000130000000013
#06117:13000000000000000013000000000000
#0611b:0000001300000000
#06112:13000013
#06116:0013001300000000
#06019:0000130000000013
#06017:13000000000000000013000000000000
#0601b:0000001300000000
#06012:13000013
#06016:0013001300000000
#06212:0000000000000013
#06217:0000000000000013
#06218:0014000000000000
#06219:2200000023130000
#06214:24
#06216:0022
#06314:0013000000000000
#06316:00130000
#06312:0000001300001300
#06317:0000001300001300
#0631b:0000130000130000
#0671b:0013000013000013
#06712:00000000000000130000000013000000
#06714:12000000001300000000000000000000
#06717:000000000000000000130000000000000033000000000000
#06719:000000130000003300000000
#06716:00000013000000000000000000000000
#0671a:120000000000000000000000003300000000000000000000
#06718:000000000000000000000000000000333300000000000000
#06412:12120000
#06414:00000000000000120000000000000000
#06418:16
#06410:41
#0651c:12000012000000000000000000000000
#06518:00000012
#0651a:0000000000000012
#06512:16
#06612:12120000
#06614:00000000000000120000000000000000
#06618:16
#06818:12120000
#0681a:00000000000000120000000000000000
#06812:16
#06916:12000012000000000000000000000000
#06912:00000012
#06914:0000000000000012
#06918:16
#07018:12120000
#0701a:00000000000000120000000000000000
#07012:16
#07116:12000012000000000000000000000000
#07112:0000000000001212
#07118:16
#0061b:00000000000013000000001300000000
#00616:00000000000013000000001300000000
#00612:0013
#00617:0000000013000013
#00712:00000013000000001300000000000000
#0071b:13000013
#00717:00000013000000001300000000000000
#00716:1300001300000000
#00812:00000000000013000000001300000000
#00817:00000000000013000000001300000000
#00816:0013
#0081b:0000000013000013
#00916:00000013000000001300000000000000
#00917:13000013
#0091b:00000013000000001300000000000000
#00912:1300001300000000
#0101b:00000000000013000000001300000000
#01016:00000000000013000000001300000000
#01017:0013
#01012:0000000013000013
#01116:1313
#01117:00130013
#0111b:13
#02152:0000005300000000
#02456:0023000063004300
#02452:5300330000230000
#0245b:0023000063004300
#02457:5300330000230000
#03058:0024000000000000
#03059:5200000000230000
#03056:0000000052000063
#03459:5200000000230000
#03458:0024000000000000
#03456:0052
#03457:0000000000000053
#03652:00620000
#0375c:52
#03752:0000620000000062
#0395c:52
#03956:0053
#03957:00000063
#04052:13
#0405b:1313
#0415b:0013
#04152:0053
#0425b:0013
#0435b:0013
#04356:0053
#04357:00000063
#04457:0053
#04452:0013
#04657:0063
#04652:63
#04752:63
#00058:56
#0045b:1353
#00452:13
#00457:00000000000000000000005300000000
#0055b:0053
#00552:63000063
#00556:00000063000000000000000000000000
#00655:13
#00658:13
#00652:0063
#00656:00000000000000000000006300000000
#0125b:13000053
#01256:13
#01357:00630063
#0135b:0000002300000023
#01352:6363
#01356:0023000000230000
#01452:13000063
#01457:13
#01652:1300000000000063
#0165b:13
#01656:00530000
#01657:0063
#01558:63000053
#01555:00530000
#0175b:0053
#01756:00230000000000000000000000000000
#01852:1300000000630000
#0185b:0000001300000053
#0205b:5300005300130000
#02052:00000063000000000000130000000000
#02057:0000000023000053
#0235b:0000006300000000
#02252:6300006300130000
#0225b:00000053000000000000130000000000
#02256:0000000023000063
#02752:0000005300000000
#0265b:5300005300130000
#02652:00000063000000000000130000000000
#02657:0000000023000053
#0315b:0000006300000000
#02956:00000000000000000023000000000000
#02952:0000006300000000
#02957:0023000000000000
#0295b:53
#02856:00000000000000000023000000000000
#02852:0000006300000000
#02857:0023000000000000
#0285b:53
#03357:00000000000000000023000000000000
#0335b:0000005300000000
#03356:0023000000000000
#03352:63
#03257:00000000000000000023000000000000
#0325b:0000005300000000
#03256:0023000000000000
#03252:63
#03552:0000005300000000
#03852:00620000
#04552:0013
#0455b:0063
#04952:0000005300000000
#0485b:5300005300430000
#04857:00000063000000002300000000005300
#04856:0000005300430000
#04852:0023
#05052:6300006300330000
#05056:00000053000000002300000000006300
#0505b:0023
#05057:0000006300330000
#05256:0023000063004300
#0525b:0023000063004300
#05257:5300330000230000
#05252:5300330000230000
#0515b:0000006300000000
#05552:0000005300000000
#05457:00000063000000002300000000005300
#0545b:5300005300430000
#05452:0023
#05456:0000005300430000
#0595b:0000006300000000
#05856:0000000052000063
#05858:0024000000000000
#05859:5200000000230000
#05756:00000000000000000023000000000000
#05752:0000006300000000
#05757:0023000000000000
#0575b:53
#05656:00000000000000000023000000000000
#05652:0000006300000000
#05657:0023000000000000
#0565b:53
#06157:00000000000000000023000000000000
#0615b:0000005300000000
#06156:0023000000000000
#06152:63
#06057:00000000000000000023000000000000
#0605b:0000005300000000
#06056:0023000000000000
#06052:63
#06352:0000005300000000
#06257:0000000000000053
#06258:0024000000000000
#06259:5200000000230000
#06256:0052
#00152:66
#00258:56
#00352:66
#06458:56
#06552:66
#06658:56
#0675b:0053
#06852:66
#06958:56
#07052:66
#07158:56
#00752:0063
#0075b:53000053
#00757:00000053000000000000000000000000
#00855:13
#00858:13
#00856:0053
#00852:00000000000000000000005300000000
#00956:0053
#00957:63000063
#0095b:00000063000000000000000000000000
#01052:13
#0105b:13000000000000000000006300000000
#01057:0063
#01156:5353
#01157:00630063
#000380:16
#0003a0:0000000000000022
#000361:0000000000120022
#001321:16
#001341:0000000000000022
#0013a0:0000001200220000
#002381:16
#0023a1:0000000000000022
#002360:0000000000120022
#003320:16
#003340:0000000000000022
#0033a1:0000001200220000
#0043b0:0000000013000023
#004370:00000000000000000000003300000000
#005320:1300002300000000
#005360:00000033000000000000000000000000
#0053b0:0013
#005380:00000053
#006380:23
#005321:00000013
#006351:23
#006321:0000000013000023
#006361:00000000000000000000003300000000
#0073b1:1300002300000000
#007371:00000033000000000000000000000000
#007321:0013
#007351:00000053
#008351:23
#0073b0:00000013
#008380:23
#008360:0000000013000023
#008320:00000000000000000000003300000000
#009370:1300002300000000
#0093b0:00000033000000000000000000000000
#009360:0013
#009320:00000053
#010320:23
#009371:00000013
#0103b1:23
#010371:0000000013000023
#0103b1:00000000000000000000003300000000
#011361:13
#011321:00230000
#011370:00130000
#0113b0:0023
#011361:0013
#011321:00000023
#011370:00000013
#0123b0:23
#0123b0:00000013
#013370:23
#013321:13230000
#013361:0053000000000000
#013370:00132300
#0133b0:0000005300000000
#013321:00001323
#013361:0000000000530000
#013370:00000013
#0133b0:0000000000000053
#014370:23
#014320:00000013
#015350:23
#015381:13
#0153b1:00230000
#015350:00130000
#015320:0023
#015380:00000013
#0163b0:23
#016360:00130000
#016320:0023
#016371:0013
#0163b1:00000023
#016321:0000000000000013
#017361:00530000000000000000000000000000
#017321:00230000
#0173b1:0013
#017381:00000023
#018321:0000000000130000
#018361:0000000000000023
#0183b0:0000000000000013
#019370:0023000000000000
#019320:0000000000132300
#0203b0:13
#020370:00000023000000000000000000000000
#020321:00000013000000000000000000000000
#020361:0000002300000000
#0203b0:0000001300230000
#020370:0053
#020370:0000000000000013
#0213b0:0023000000000000
#021320:0000001300000000
#021360:0000000000230000
#0213b1:0000000000132300
#022321:13
#022361:00000023000000000000000000000000
#0223b0:00000013000000000000000000000000
#022370:0000002300000000
#022321:0000001300230000
#022361:0053
#022361:0000000000000013
#023321:0023000000000000
#0233b1:0000001300000000
#023371:0000000000230000
#024321:13230000
#024361:0053000000000000
#024370:13230000
#0243b0:0053000000000000
#0243b0:00001323
#024370:0000000000530000
#024361:00001323
#024321:0000000000530000
#0263b1:13
#026371:00000023000000000000000000000000
#026320:00000013000000000000000000000000
#026360:0000002300000000
#0263b1:0000001300230000
#026371:0053
#026371:0000000000000013
#0273b1:0023000000000000
#027321:0000001300000000
#027361:0000000000230000
#0283b1:13230000
#028371:0053000000000000
#028321:0000001300002300
#028361:00000000000000000053000000000000
#0293b1:13230000
#029371:0053000000000000
#029321:0000001300002300
#029361:00000000000000000053000000000000
#030341:1400000000000053000000000000000000000000000000000000000000000000
#030351:005200000000000000000000000000000000000000000000000000000000000000000000000000000052000000000000220000000000000000000000000000000000000000000000000000000000000000000000000000000000000000000000000000000000000000000000000000000000000000000000000000000000000000000000000000000000000000000000000000000000000000000000000000000000000000000000000000000000000000000000000000000000000000000000
#030390:12220000
#030380:0054000000000000
#030360:0012
#030350:000000000000000000000000000000000000000000000000000000000000000000000000000000000000000000000000000000000000000000000000000000000000000000000000000000000000000000000000000000000000000000000000000000000000520000000000000000000000000000000000000000000000000000000052005200000000000000000000220000000000000000000000000000000000000000000000000000000000000000000000000000000000000000000000
#030340:00000000000000000000005400000000
#030391:0000000000000000000000000000000013000000535200002200000000000000
#030361:0000000000000013
#031321:0023000000000000
#0313b1:0000001300000000
#031371:0000000000230000
#032321:13230000
#032361:0053000000000000
#0323b1:0000001300002300
#032371:00000000000000000053000000000000
#033321:13230000
#033361:0053000000000000
#0333b1:0000001300002300
#033371:00000000000000000053000000000000
#034341:1400000000000053000000000000000000000000000000000000000000000000
#034351:005200000000000000000000000000000000000000000000000000000000000000000000000000000052000000000000220000000000000000000000000000000000000000000000000000000000000000000000000000000000000000000000000000000000000000000000000000000000000000000000000000000000000000000000000000000000000000000000000000000000000000000000000000000000000000000000000000000000000000000000000000000000000000000000
#034390:12220000
#034380:0054000000000000
#034360:0012
#034350:000000000000000000000000000000000000000000000000000000000000000000000000000000000000000000000000000000000000000000000000000000000000000000000000000000000000000000000000000000000000000000000000000000000000520000000000000000000000000000000000000000000000000000000052005200000000000000000000220000000000000000000000000000000000000000000000000000000000000000000000000000000000000000000000
#034340:00000000000000000000005400000000
#034391:0000000000000000000000000000000013000000535200002200000000000000
#034371:0000000000000013
#0353b1:0023000000000000
#035321:0000001300000000
#035361:0000000000230000
#036321:00120000
#036361:0022
#0373c1:12
#037381:00220000
#037320:00120000
#037360:0022
#037320:0000000000000012
#038360:0022000000000000
#038320:00120000
#038360:0022
#0393c0:12
#039380:00220000
#039360:0013
#039320:00000023
#039371:00000013
#0403b1:23
#041321:0013
#041361:00000023
#043361:0013
#043321:00000023
#043370:00000013
#0443b0:23
#044370:0013
#0443b0:00000023
#0453b0:0013
#045370:00000023
#046320:13
#046360:00230000
#046370:0013
#0463b0:00000023
#047320:13
#047360:00230000
#0483b0:1300003300230000
#048370:00000033000000005300000000000000
#048361:0000001300230000
#048321:0053
#048371:0000000000000013
#0493b1:0023000000000000
#049321:0000001300000000
#049361:0000000000230000
#0493b0:0000000000132300
#050320:1300003300230000
#050360:00000033000000005300000000000000
#050371:0000001300230000
#0503b1:0053
#050361:0000000000000013
#051321:0023000000000000
#0513b1:0000001300000000
#051371:0000000000230000
#052321:13230000
#052361:0053000000000000
#052370:13230000
#0523b0:0053000000000000
#0523b0:00001323
#052370:0000000000530000
#052361:00001323
#052321:0000000000530000
#0543b1:1300003300230000
#054371:00000033000000005300000000000000
#054360:0000001300230000
#054320:0053
#054370:0000000000000013
#0553b0:0023000000000000
#055320:0000001300000000
#055360:0000000000230000
#0563b0:13230000
#056370:0053000000000000
#056320:0000001300002300
#056360:00000000000000000053000000000000
#0573b0:13230000
#057370:0053000000000000
#057320:0000001300002300
#057360:00000000000000000053000000000000
#058340:1400000000000053000000000000000000000000000000000000000000000000
#058350:005200000000000000000000000000000000000000000000000000000000000000000000000000000052000000000000220000000000000000000000000000000000000000000000000000000000000000000000000000000000000000000000000000000000000000000000000000000000000000000000000000000000000000000000000000000000000000000000000000000000000000000000000000000000000000000000000000000000000000000000000000000000000000000000
#058391:12220000
#058381:0054000000000000
#058361:0012
#058351:000000000000000000000000000000000000000000000000000000000000000000000000000000000000000000000000000000000000000000000000000000000000000000000000000000000000000000000000000000000000000000000000000000000000520000000000000000000000000000000000000000000000000000000052005200000000000000000000220000000000000000000000000000000000000000000000000000000000000000000000000000000000000000000000
#058341:00000000000000000000005400000000
#058390:0000000000000000000000000000000013000000535200002200000000000000
#058360:0000000000000013
#059320:0023000000000000
#0593b0:0000001300000000
#059370:0000000000230000
#060320:13230000
#060360:0053000000000000
#0603b0:0000001300002300
#060370:00000000000000000053000000000000
#061320:13230000
#061360:0053000000000000
#0613b0:0000001300002300
#061370:00000000000000000053000000000000
#062340:1400000000000053000000000000000000000000000000000000000000000000
#062350:005200000000000000000000000000000000000000000000000000000000000000000000000000000052000000000000220000000000000000000000000000000000000000000000000000000000000000000000000000000000000000000000000000000000000000000000000000000000000000000000000000000000000000000000000000000000000000000000000000000000000000000000000000000000000000000000000000000000000000000000000000000000000000000000
#062391:12220000
#062381:0054000000000000
#062361:0012
#062351:000000000000000000000000000000000000000000000000000000000000000000000000000000000000000000000000000000000000000000000000000000000000000000000000000000000000000000000000000000000000000000000000000000000000520000000000000000000000000000000000000000000000000000000052005200000000000000000000220000000000000000000000000000000000000000000000000000000000000000000000000000000000000000000000
#062341:00000000000000000000005400000000
#062390:0000000000000000000000000000000013000000535200002200000000000000
#062370:0000000000000013
#0633b0:0023000000000000
#063320:0000001300000000
#063360:0000000000230000
#064380:16
#0643a0:0000000000000022
#064361:0000000000120022
#065321:16
#065341:0000000000000022
#0653a0:0000001200220000
#066381:16
#0663a1:0000000000000022
#066360:0000000000120022
#0673b0:0013
#0673a0:000000000000000000000000003300000000000000000000
#067390:000000000000003300000000
#067380:000000000000000000000000000000333300000000000000
#067370:000000000000000000000000000000000033230000000000
#068320:16
#068340:0000000000000022
#0683c1:0000000000120022
#069381:16
#0693a1:0000000000000022
#069340:0000001200220000
#070321:16
#070341:0000000000000022
#0703c0:0000000000120022
#071380:16
#0713a0:0000000000000022
#071341:0000001200220000
