This file was generated by Ched 2.7.0.0.
#TITLE ""
#ARTIST ""
#DESIGNER ""
#DIFFICULTY 0
#PLAYLEVEL
#SONGID ""
#WAVE ""
#WAVEOFFSET 0
#JACKET ""
#REQUEST "ticks_per_beat 480"
#00002: 4
#BPM01: 140
#00008: 01
#TIL00: ""
#VOLUME: ""
#HISPEED 00
#MEASUREHS 00
#0401f:11
#04012:00130000
#04018:0000001300000000
#04015:0000000013000013
#0401b:23000013
#02012:2400000000000013
#0201a:0000001400000000
#02016:00000014000000000000000000000000
#02010:41
#02115:0013001300000013
#02118:00000000130000000000000000130000
#0361a:0012
#03614:0000000000120000
#03618:00000012
#03616:0000120000000012
#03610:41
#03714:0012
#0371a:0000000000120000
#03716:00000012
#0381a:0012
#03814:0000120000120000
#03818:00000012
#03816:0000000000000012
#03912:00120000
#0391a:0000001200000000
#0391c:12
#03915:0023
#04112:0013000000000000
#04118:1313
#0411b:00130000
#04115:0000001300000000
#04315:0013000013000000
#04312:13
#04318:00130000
#0431b:0000001300000000
#04712:0000000000130000
#04718:00000000330033000000000000130000
#04715:0000000000000013
#0471b:13
#04719:0033000000000000
#0001c:12120000
#00014:00000000000000120000000000000000
#00112:12000012000000000000000000000000
#00116:00000012
#0011a:0000000000000012
#00214:12120000
#00218:00000000000000120000000000000000
#0031a:12000012000000000000000000000000
#00318:00000012
#00316:0000000000000012
#00412:13
#0041b:1313
#00415:0000001300000000
#00418:00000000000000000000001300000000
#0051b:0013
#00512:13
#00515:00000013000000000000000000000000
#01212:00130013
#01215:0013
#01218:0000001300000000
#0121b:1300000000130000
#01210:41
#01515:0000000000130000
#01518:13000013
#01612:1300000013000013
#0161b:00130013
#01615:00130000
#01618:0013
#01718:0000130000000013
#01715:0000001300001300
#0171b:0013
#01915:00000000000000000000000000130000
#01918:0000000000000013
#01912:0013000000000000
#0191b:0000000000130000
#0301b:0000000000000013
#03115:0013000000001300
#03118:0000130000130000
#03112:0000001300000000
#0451b:0013000000000000
#04515:13
#04512:00131300
#04518:0000001300000000
#0671a:12
#06712:0013000000000000
#06718:00000012
#06716:0000000000000012
#06714:00000033000000000000000000000000
#06715:00000000333333330000000000000000
#0681c:12120000
#06818:00000000000000120000000000000000
#06912:12000012000000000000000000000000
#0691a:00000012
#06916:0000000000000012
#07018:12120000
#07015:00000000000000120000000000000000
#07116:12000012000000000000000000000000
#0711c:0000000000001212
#0111b:13
#01118:00130000
#01115:0013
#01112:00000013
#01815:0000000000130000
#01818:0000000000000013
#01812:23
#0181b:0000002300000000
#00612:1313
#0061b:13
#00618:0000001300000000
#00615:00000000000000000000001300000000
#0071b:13
#00718:00000013000000000000000000000000
#00712:0013
#0081b:13000000000000000000001300000000
#00812:13
#00815:0000001300000000
#00818:0013
#00915:13
#00912:00000013000000000000000000000000
#00918:0013
#01012:13000000000000000000001300000000
#0101b:13
#01018:0000001300000000
#01015:0013
#0131b:13
#01312:0013
#01415:00130013
#01412:0013
#0141b:0000001300000000
#01418:1300000000130000
#0221b:0000000000000013
#02212:0000001400000000
#02216:00000014000000000000000000000000
#0221a:24
#02318:0013001300000000
#02315:00130013
#02418:13
#02412:13
#02415:0013
#0241b:0013
#0251b:13
#02515:0013000000000013
#02518:00000000130000000000000000130000
#02512:0000001300000000
#0261b:0000000000000013
#02612:0000001400000000
#02616:00000014000000000000000000000000
#0261a:24
#02718:0013001300000000
#02715:00130013
#0281b:13
#02818:0000001300000000
#02810:41
#02912:13
#02915:0000001300000000
#03412:0000000000000013
#03518:0013000000000000
#03515:0000130000130000
#0351b:0000001300000000
#03218:13
#0321b:0000001300000000
#03315:13
#03312:0000001300000000
#04212:1313
#04218:0013000000000013
#04215:00130013
#0421b:0000001300130000
#0441b:1313
#04415:0013000000000000
#04418:0000130000000013
#04412:0000001300001300
#0461b:13
#04615:0000130000000013
#04618:0000001300001300
#04612:0013
#0481b:0000000000000013
#0481f:21
#0481a:24
#04816:00000024000000000000000000000000
#04812:0000002400000000
#04918:0013001300000013
#04915:00000000130000000000000000130000
#05812:0000000000000013
#05918:0013000000001300
#05915:0000130000130000
#0591b:0000001300000000
#05012:2400000000000013
#05016:00000024000000000000000000000000
#0501a:0000002400000000
#05115:0013001300000000
#05118:00130013
#05214:14
#0521a:14
#05218:0014
#05212:0014
#05210:41
#05312:13
#05318:0013000000000013
#05315:00000000130000000000000000130000
#0531b:0000001300000000
#05412:2400000000000013
#05416:00000024000000000000000000000000
#0541a:0000002400000000
#05515:0013001300000000
#05518:00130013
#05612:14
#05615:0000001400000000
#0621b:0000000000000013
#06315:0013000000001300
#06318:0000130000130000
#06312:0000001300000000
#06015:14
#06012:0000001400000000
#06117:14
#0611a:0000001400000000
#0571a:14
#05717:0000001400000000
#0641c:12120000
#06414:00000000000000120000000000000000
#06410:41
#06512:12000012000000000000000000000000
#06516:00000012
#0651a:0000000000000012
#06614:12120000
#06618:00000000000000120000000000000000
#03955:0053
#0405b:13
#04355:0053
#00458:00000000000000000000005300000000
#0045b:0053
#0055b:0053
#00552:63
#00555:00000063000000000000000000000000
#01652:1300000000000063
#01852:13
#0185b:0000001300000000
#0205a:0000005400000000
#02056:0000000000140000
#04158:0053
#0125b:13
#01558:63
#00652:0063
#00655:00000000000000000000006300000000
#0075b:53
#00758:00000053000000000000000000000000
#00752:0063
#00955:53
#00952:00000053000000000000000000000000
#00958:0063
#00858:0063
#0085b:00000000000000000000006300000000
#01055:0053
#01052:00000000000000000000005300000000
#0135b:53
#01352:0063
#01458:13
#01952:0063000000000000
#02155:0000006300000000
#02252:0000006400000000
#02256:0000000000140000
#02458:53000013
#0245b:00136300
#02452:53000013
#02455:00136300
#02358:0000005300000000
#02552:0000005300000000
#02652:0000006400000000
#02656:0000000000140000
#02758:0000005300000000
#02858:0000005300000000
#0285b:53
#02952:63
#02955:0000006300000000
#03258:63
#0325b:0000006300000000
#03355:53
#03352:0000005300000000
#04552:0053
#0475b:53
#04958:0000005300000000
#05254:64000014
#0525a:64000014
#05252:00145400
#05258:00145400
#05155:0000006300000000
#0535b:0000006300000000
#05555:0000006300000000
#05652:64
#05655:0000006400000000
#06055:54
#06052:0000005400000000
#06157:64
#0615a:0000006400000000
#04856:0000000000140000
#04852:0000005400000000
#0505a:0000006400000000
#05056:0000000000140000
#0545a:0000006400000000
#05456:0000000000140000
#0575a:54
#05757:0000005400000000
#06752:0053000000000000
#000380:0000000000120022
#0013a0:0000001200220000
#002320:0000000000120022
#003340:0000001200220000
#0043b0:0000000013000023
#004380:00000000000000000000003300000000
#005320:1300002300000000
#005350:00000033000000000000000000000000
#0053b0:0013
#005380:00000023
#006320:0000000013000023
#006350:00000000000000000000003300000000
#0073b0:1300002300000000
#007380:00000033000000000000000000000000
#007320:0013
#007350:00000023
#008380:0000000013000023
#0083b0:00000000000000000000003300000000
#009350:1300002300000000
#009320:00000033000000000000000000000000
#009380:0013
#0093b0:00000023
#010350:0000000013000023
#010320:00000000000000000000003300000000
#0133b0:13
#013380:00230000
#013320:0013
#013350:00000023
#015380:13
#0153b0:00230000
#016320:0000000000000013
#017350:0023000000000000
#019320:0013000000000000
#019350:0000002300000000
#0203a0:0000001400000000
#020360:0000000000240000
#021350:0000001300000000
#021320:0000000000230000
#022320:0000001400000000
#022360:0000000000240000
#023380:0000001300000000
#0233b0:0000000000230000
#024380:13
#0243b0:00230000
#024321:13
#024351:00230000
#024351:0013
#024321:00000023
#0243b0:0013
#024380:00000023
#025320:0000001300000000
#025350:0000000000230000
#026320:0000001400000000
#026360:0000000000240000
#027380:0000001300000000
#0273b0:0000000000230000
#0283b0:13000023
#028380:0000003300000000
#029320:13000023
#029350:0000003300000000
#030350:13230000
#0303b1:13230000
#030381:00001323
#030320:00001323
#032380:13000023
#0323b0:0000003300000000
#033350:13000023
#033320:0000003300000000
#034380:13230000
#034321:13230000
#034351:00001323
#0343b0:00001323
#035380:00000013
#036380:23
#0373c0:12220000
#037380:0000000000000012
#038380:0022000000000000
#039350:0013
#039320:00000023
#041380:0013
#0413b0:00000023
#043350:0013
#043320:00000023
#045320:0013
#045350:00000023
#0473b0:13
#047390:0033000000000000
#047380:0000333323000000
#048320:0000001400000000
#048360:0000000000240000
#049380:0000001300000000
#0493b0:0000000000230000
#0503a0:0000001400000000
#050360:0000000000240000
#051350:0000001300000000
#051320:0000000000230000
#052340:14
#052320:00240000
#0523a1:14
#052381:00240000
#052381:0014
#0523a1:00000024
#052320:0014
#052340:00000024
#0533b0:0000001300000000
#053380:0000000000230000
#0543a0:0000001400000000
#054360:0000000000240000
#055350:0000001300000000
#055320:0000000000230000
#056320:14000024
#056350:0000003400000000
#0573a0:14000024
#057370:0000003400000000
#058380:14240000
#058321:14240000
#058341:00001424
#0583a0:00001424
#060350:14000024
#060320:0000003400000000
#061370:14000024
#0613a0:0000003400000000
#062340:14240000
#0623a1:14240000
#062381:00001424
#062320:00001424
#064380:0000000000120022
#0653a0:0000001200220000
#066320:0000000000120022
#067320:0013000000000000
#067340:00000033000000000000000000000000
#067350:00000000333333332300000000000000
#068340:0000000000120022
#069360:0000001200220000
#070320:0000000000120022
#071390:0000001200220000
