This file was generated by Ched 2.7.0.0.
#TITLE ""
#ARTIST ""
#DESIGNER ""
#DIFFICULTY 0
#PLAYLEVEL
#SONGID ""
#WAVE ""
#WAVEOFFSET 0
#JACKET ""
#REQUEST "ticks_per_beat 480"
#00002: 4
#BPM01: 140
#00008: 01
#TIL00: ""
#VOLUME: ""
#HISPEED 00
#MEASUREHS 00
#0401f:11
#0121a:14
#01214:00140000
#01218:0014
#01212:00000014
#01210:41
#01318:1414
#01314:00140000
#01412:14
#01418:00140000
#01414:0014
#0141a:00000014
#01514:00000014
#0161a:14
#01612:00140000
#01618:0014
#01614:00000014
#0171a:14
#01712:00140000
#01718:0014
#01714:00000014
#02112:14
#02118:00140000
#02114:0014
#0211a:00000014
#0231a:14
#02314:00140000
#02318:0014
#02312:00000014
#0251a:14
#02512:00140000
#02518:0014
#02514:00000014
#02712:14
#02718:00140000
#02714:0014
#0271a:00000014
#03112:14
#03118:00140000
#03114:0014
#0311a:00000014
#03512:14
#03518:00140000
#03514:0014
#0351a:00000014
#04114:14
#04118:00140000
#04318:14
#04314:00140000
#04412:14
#04418:00140000
#0451a:14
#04514:00140000
#04612:14
#0461a:00140000
#04614:0014
#04618:00000014
#04912:14
#04918:00140000
#04914:0014
#0491a:00000014
#0511a:14
#05114:00140000
#05118:0014
#05112:00000014
#0531a:14
#05312:00140000
#05318:0014
#05314:00000014
#05512:14
#05518:00140000
#05514:0014
#0551a:00000014
#05912:14
#05918:00140000
#05914:0014
#0591a:00000014
#06312:14
#06318:00140000
#06314:0014
#0631a:00000014
#0481f:21
#0481a:24
#04819:00000034000000000000000000000000
#04818:0000003400000000
#0181a:24
#0201a:24
#02019:00000034000000000000000000000000
#02018:0000003400000000
#02010:41
#02212:24
#02213:00000034000000000000000000000000
#02214:0000003400000000
#0261a:24
#02619:00000034000000000000000000000000
#02618:0000003400000000
#05012:24
#05013:00000034000000000000000000000000
#05014:0000003400000000
#0541a:24
#05419:00000034000000000000000000000000
#05418:0000003400000000
#01913:00003400003400000000000000000000
#01914:00000000000000343434340000000000
#04713:0034000000000000
#04714:0000343434340000
#06414:00000000340000340000340000000000
#06410:41
#06518:00000034000034000000000000000000
#06614:00000000340000340000340000000000
#06718:00000034000034000000000000000000
#06812:00000000340000340000340000000000
#0691a:00000034000034000000000000000000
#07012:00000000340000340000340000000000
#0711a:00000034000034000000000034000000
#0001a:00000000340000340000340000000000
#03612:00340000
#03613:0034
#03610:41
#0371a:00340000
#03719:0034
#03812:00340000
#03813:0034
#0391a:00340000
#03919:0034
#00118:34000034000034000000000000000000
#00212:00000000340000340000340000000000
#00314:34000034000034000000000000000000
#02810:41
#05210:41
#0125a:14
#01452:14
#0165a:14
#02058:0000000000140000
#02254:0000000000140000
#0245a:00140000
#02452:00000014
#02658:0000000000140000
#04858:0000000000140000
#05054:0000000000140000
#0525a:00140000
#05252:00000014
#05458:0000000000140000
#0003a0:14000000340000340000340000000000
#001380:34000034000034000000000024000000
#002320:14000000340000340000340000000000
#003340:34000034000034000000000024000000
#0043a0:14
#004380:0024
#005320:14
#005340:0024
#0063a0:14
#006380:0024
#007320:14
#007340:0024
#008380:14
#0083a0:0024
#009340:14
#009320:0024
#010380:14
#0103a0:0024
#011340:14
#011320:0024
#015340:14240000
#0183a0:14
#018390:0000003400000000
#018380:00000024
#019320:14
#019330:00003400003400000000000000000000
#019340:00000000000000343434340024000000
#0203a0:14
#020390:00000034000000000000000000000000
#020380:0000003400240000
#022320:14
#022330:00000034000000000000000000000000
#022340:0000003400240000
#0243a0:14240000
#024320:00001424
#0263a0:14
#026390:00000034000000000000000000000000
#026380:0000003400240000
#028320:14000024
#028340:0000003400000000
#0293a0:14000024
#029380:0000003400000000
#030320:14240000
#0303a0:00001424
#032320:14000024
#032340:0000003400000000
#0333a0:14000024
#033380:0000003400000000
#034320:14240000
#0343a0:00001424
#036320:14340000
#036330:0034
#036340:00000024
#0373a0:14340000
#037390:0034
#037380:00000024
#038320:14340000
#038330:0034
#038340:00000024
#0393a0:14340000
#039390:0034
#039380:00000024
#040320:14240000
#0403a0:00001424
#041320:00001424
#0423a0:14240000
#042320:00001424
#0433a0:00001424
#044340:00001424
#045380:00001424
#047320:14
#047330:0034000000000000
#047340:0000343434342400
#0483a0:14
#048390:00000034000000000000000000000000
#048380:0000003400240000
#050320:14
#050330:00000034000000000000000000000000
#050340:0000003400240000
#0523a0:14240000
#052320:00001424
#0543a0:14
#054390:00000034000000000000000000000000
#054380:0000003400240000
#056320:14000024
#056340:0000003400000000
#0573a0:14000024
#057380:0000003400000000
#058320:14240000
#0583a0:00001424
#060320:14000024
#060340:0000003400000000
#0613a0:14000024
#061380:0000003400000000
#062320:14240000
#0623a0:00001424
#064320:14
#064340:00000000340000340000340024000000
#0653a0:14
#065380:00000034000034000000000024000000
#066320:14
#066340:00000000340000340000340024000000
#0673a0:14
#067380:00000034000034000000000024000000
#068340:14
#068320:00000000340000340000340024000000
#069380:14
#0693a0:00000034000034000000000024000000
#070340:14
#070320:00000000340000340000340024000000
#071380:14
#0713a0:00000034000034000000000034002400
