This file was generated by Ched 2.7.0.0.
#TITLE ""
#ARTIST ""
#DESIGNER ""
#DIFFICULTY 0
#PLAYLEVEL
#SONGID ""
#WAVE ""
#WAVEOFFSET 0
#JACKET ""
#REQUEST "ticks_per_beat 480"
#00002: 4
#BPM01: 200
#BPM02: 150
#BPM03: 160
#BPM04: 170
#BPM05: 180
#BPM06: 185
#BPM07: 190
#BPM08: 195
#00008: 01
#10508: 00000001
#06608: 00000001
#09508: 00000002
#04708: 02
#06008: 00000003
#06108: 00000004
#06208: 00000005
#06308: 00000006
#06408: 00000007
#06508: 00000008
#TIL00: ""
#VOLUME: ""
#HISPEED 00
#MEASUREHS 00
#00019:14
#00113:14
#00219:14
#00313:14
#0081a:14
#00814:0014
#0091a:14
#01012:14
#01018:0014
#01112:14
#0121a:14
#01214:0014
#0131a:14
#01414:14
#01418:0014
#02514:14
#02618:14
#02712:14
#0281a:14
#02810:41
#02914:14
#03018:14
#03112:14
#0361a:14
#0371a:14
#03814:14
#03914:14
#04018:14
#04010:41
#04118:14
#04212:14
#04312:14
#04818:00000014
#04914:00000014
#0501a:00000014
#06912:00000016
#07012:00160016
#07018:2616
#0701f:21
#07118:00160016
#07112:0016
#07110:41
#07418:00160016
#07412:0016
#07512:00160016
#07518:0016
#08518:00000016
#08510:00000041
#08618:00160016
#08612:2616
#08712:00160016
#08718:0016
#08818:00161600
#08812:00000016
#08912:16
#09012:00160016
#09018:0016
#09118:00160016
#09112:0016
#09212:00161600
#09218:00000016
#09318:16
#09618:00000014
#09714:00000014
#0981a:00000014
#09912:00000014
#10018:00000014
#10114:00000014
#1021a:00000014
#0591f:00000011
#07812:00260000
#07818:00000026
#07912:00260000
#07918:00000026
#08012:00260000
#08018:00000026
#08112:00260000
#01612:00343434
#01610:41
#0181a:00343434
#02014:00343434
#02218:00343434
#05110:00000041
#004390:1434
#005390:24
#006330:1434
#007330:24
#016320:14343434
#017340:24
#0183a0:14343434
#019380:24
#020340:14343434
#021320:24
#022380:14343434
#0233a0:34
#0243a0:24
#032390:14
#033390:24
#034330:14
#035330:24
#044320:14
#047320:00000024
#051320:00000014
#052320:00000024
#053380:00000014
#054380:00000024
#055340:00000014
#056340:00000024
#0573a0:00000014
#0583a0:00000024
#059320:00000014
#060330:00340000
#060340:00000024
#0613a0:00000014
#062390:00340000
#062380:00000024
#063340:00000014
#064330:00340000
#064320:00000024
#065380:00000014
#066390:00340000
#0663a0:00000034
#0673a0:00000024
#072320:00162600
#072380:00000016
#073380:26
#073320:00163626
#076380:00162600
#076320:00000016
#077320:26
#077380:00163626
#081380:00000016
#083380:00000036
#084380:36363626
#089380:00163626
#093320:00163636
#095320:00000026
#103320:00000014
#105360:00000000000000000000000034360036
#105340:0000000000000036
#106340:3636363636363636
#106360:00360036003600360036003600360036
#107340:3636363636360000
#107360:00360036003600360036003624000000
