This file was generated by Ched 2.7.0.0.
#TITLE ""
#ARTIST ""
#DESIGNER ""
#DIFFICULTY 0
#PLAYLEVEL
#SONGID ""
#WAVE ""
#WAVEOFFSET 0
#JACKET ""
#REQUEST "ticks_per_beat 480"
#00002: 4
#BPM01: 200
#BPM02: 160
#BPM03: 170
#BPM04: 180
#BPM05: 185
#BPM06: 190
#BPM07: 195
#BPM08: 150
#00008: 01
#06608: 00000001
#10508: 00000001
#06008: 00000002
#06108: 00000003
#06208: 00000004
#06308: 00000005
#06408: 00000006
#06508: 00000007
#09508: 00000008
#04708: 08
#TIL00: "46'960:0.75, 60'1440:0.8, 61'1440:0.85, 62'1440:0.9, 63'1440:0.925, 64'1440:0.95, 65'1440:0.975, 66'1440:1"
#VOLUME: ""
#HISPEED 00
#MEASUREHS 00
#0001b:1300000000001313
#00019:0013000000000000
#00017:00131300
#00012:1212120012001212
#0011b:1300000000000000000000000000000013000000000000000000000000000052
#00119:0000000013000000000000001300000000000000000000000000000000520000
#00117:00130000
#00112:1212121212000013
#00118:0000000000000012
#0011a:00000000000000000000000000000052
#00212:13001313
#00214:0013001300000013
#00216:00130000
#0021c:5212121212001212
#00316:1313001300000013
#00312:0000130000130000
#00314:00001313
#00319:00130000000000000000000013000000
#0031c:0000121212000000
#00317:0000000000130000
#0031b:0000000000000013
#00816:0000141414001414
#00812:26001414
#0081a:00140000
#0081b:23
#01016:1414141414000014
#01012:00140014
#0101a:1414
#01414:0013131300000000
#01419:0013131300000000
#01416:0000000014141400
#01412:00001313
#0141a:14
#0141b:0000000000130000
#01417:13
#01512:0000120000000012
#01518:00000000000000001200001200000000
#0151c:00121200
#01516:0000000000120012
#01514:00000012
#0161a:1414
#01618:0014001400000000
#01616:00140000
#01612:0000330033000014
#0161b:00000033
#01610:41
#02314:0014000000000000
#02316:1400001313131212
#02317:00000000000000000013000000130013
#02318:00000000000000120000000000000000
#0231a:00140000
#02312:00140000
#02614:0000141400000000
#02616:0000000014140000
#02618:0000000000001414
#02612:2414000000000000
#02619:00120000
#0261b:0012
#02615:00000012
#02816:000014140000131416180000
#02812:240013130000000000000000
#0281a:24
#02810:41
#0301b:000013130000000013130000
#03016:000014140000000000000000
#03012:240000000013130000000000
#0301a:24
#03216:001300000000
#03212:130000000013000016000013
#03214:001300000000000000000000
#0321b:000013000013000000000000
#03219:0013
#03217:000000000000001300000000
#0331a:00000014
#03316:0000000000000014
#03312:13001314
#03317:00130000
#04812:0012000000000000
#04814:00120000
#04816:0052001200121200
#04818:00000000520000001200005200000000
#0481a:0000005200005200
#0481c:0052
#04918:0012120022002200
#04916:00000012000000000000120000000000
#04912:0000001200001200
#04914:0012
#0491a:0000005200520000
#05918:000014000013
#05915:000000000014000000000013
#05916:001400000000000014000000
#05914:001400000000
#0591a:140000240000241400240000
#0591f:00000011
#05912:24242424
#06012:13261326
#06015:001300001300001300000013
#06018:130013260013000013261300
#0601b:0013
#06112:13261326
#06115:001300000013000013001300
#06118:130013261300001300260013
#0611b:0013
#06218:001300260013000013261300
#06215:130013001300001300000013
#0621b:1313
#06212:00261326
#06312:13242425
#06315:001300000000000000000000
#06316:000000001400001400000000
#0631a:000000000014000014000000
#06318:132300000000
#0631b:00230000
#06319:00000025
#06815:00001300000000130000130000000000
#06818:00000013000013001600001300000000
#06812:00160016
#0681b:0000000000000013
#06816:0000000000000013
#06917:13
#06916:00000054000014140000140000000000
#06912:13541400
#0691a:00001400000000000014000000000000
#06918:0000000000540000000000000000000000000000000000000000000000000000
#06914:0000000000000054000000000000000000000000000000000000000000000000
#07015:00000013000000000000000000000000
#0701a:0000000000140000
#07016:00000000000000000000001428000000
#07012:00130000
#07018:0023000013000000
#0701f:21
#07115:00000013000013000000001300000000
#07112:1300130000131600
#07118:00002300001300000000000000000000
#0711b:13000000000000130000000000000000
#07110:41
#0721a:0014240000142400
#07217:00000013000000000000001300000000
#07212:1300001424000014
#07216:00000000000000130000000000000013
#0721b:13
#0731a:0014000000000000
#07317:00000013270000000000000000000000
#07312:2700001414141400
#07315:00000000000000130013001300000000
#0761a:00001414000000000000000000000000
#07616:00000000240014140000000024000000
#07612:13000000000000002400141400002400
#0761b:13
#07716:0054001212141400
#07712:1400000000130000
#0771b:00000013
#07718:00000054000000120000000000000000
#07714:00540000000000000000000000000000
#0771a:00540000
#08212:131800001318001c
#0821b:00130013
#08216:1400141814001400
#08116:1414141414141418
#08112:1313
#0811b:00130013
#0831c:0000000000000012
#08316:14000000140000001400000000120000
#08312:13001c0000001c0013001c0000000012
#0831b:00130000
#08318:00000022
#0841c:0012001200000000
#08416:00120000001200000054005400000000
#08412:00000012000000120000540054000000
#08418:2200000000000000220000000000000000540000005400000000000013001300
#0841a:0000000014140000
#08414:0000000000000000000000000000000000000054000000540000000000000000
#08512:1600000000140000
#08518:00160000000000000000000000000000
#08515:00001313160000000000000000000000
#0851a:00000000000000140000000000000000
#08510:00000041
#0861b:0013000000000000
#08612:0000130024240000
#08616:00001300000000140000001400001400
#08617:00130000
#0861a:0000002400002400
#08716:00001400140014140014140014001400
#08712:13002300000000230000000023000000
#0871b:1300230000230000
#0881b:1313000000130000
#08818:00000013000013000000001326000000
#08815:00000000240000130000000000000013
#08812:1300000024000013
#08912:2600001313002c00
#08915:00000000000000130000000000000000
#0891b:00001300000000000013001300000000
#08918:00000013260000000000130000001300
#0901b:1313000000000000
#09018:00000013000013000000160016001300
#09015:00000000000000130000001300001300
#09012:1313
#09117:00001300000000130000000000000000
#09116:00130000
#09112:13001300000013130000000000000000
#0911b:1300130000131300
#09115:0000000000000013
#09118:0000000000000013
#09219:0000000000000013
#09217:00001400000000000000140000000013
#09212:13000000160000130000000016000000
#0921b:00000013000000000000001300000000
#09218:0016
#09215:0000001400000000
#0931a:14
#09318:00140000000000001600000000000000
#09316:00001400000000000016000000000000
#09314:00000014000000000000160000000000
#09319:00150000
#09317:00000000001500000000000000000000
#09315:0000001500000000
#09313:00000000000000150000000000000000
#09312:0000000000000000000000161c000000
#0951a:000000000012
#09518:000000000000000000000012
#0951c:00000022
#09618:001200001200220000000000
#09616:000012000012001200000012
#09614:000000120000000012001200
#0961a:22220012
#09612:00000022
#02417:00121200
#02419:0000000000120012
#0241b:00000012
#02412:24242424
#0241a:24
#02712:00000014000000140000000014000000
#0271a:14140000
#02716:00120000001200000000000000000000
#02718:0012001200000000
#03512:001b141914000000
#03518:0000140000120000
#03516:00000000000000001400001200000000
#05012:0012000000000000
#05015:00000012000000000000000000000000
#05018:00120000
#05014:0000001200000000
#05017:00000000000000120000000000000000
#0501a:0012
#05016:0000000000120000
#05019:00000000000000000000001200000000
#0501c:00000022
#05118:000000120000000000120000000000000000000013000000
#05116:00000012000000120012001200000000
#0511a:00120000
#05114:0000000022122200
#05115:000000000000000000000013
#0511b:00000023
#05110:00000041
#00412:16161616
#00418:13131313
#00415:0016000000000016
#00512:16161616
#0051b:13131300
#00518:0013001300000000
#00612:16161616
#00615:0016000000160000
#00618:00131313
#0061b:0000001300000013
#00712:16161616
#00718:13130000000013000000000013000000
#00715:0016000000160000
#0071b:0000130013000013
#00916:1400141414001414
#0091a:14140000
#00912:00001414
#0111a:1414
#01112:00140014
#01116:0014001400140014
#01217:00130000
#01216:0000001413001314
#01212:24001414
#0121a:24140000
#01317:13130000
#0131a:14140000
#01316:0000001413001314
#01312:00001414
#0171a:00000014
#01718:0000000000000014
#01716:14
#01714:0014000000000000
#01712:0000143433003300
#0171b:00330000
#01816:14
#01818:0014001400000000
#0181a:00141400
#01812:00333300
#0181b:00000033
#01916:00140000
#01914:0000001400000000
#01912:00001433
#0191a:0000000000000014
#0191b:00333300
#02012:00141433
#02018:0000000000000014
#02014:0000001400000000
#0201b:00333300
#02116:14
#02118:0014001400000000
#0211a:00141400
#02112:00333300
#0211b:00000033
#02212:14001433
#02214:0014001400000000
#02216:00140000
#02218:0000000000000014
#0221b:00333300
#02517:1212
#0251b:00120012
#02512:24242424
#02916:000014140000001400000000
#02917:0013
#02914:000016
#02912:24000018
#0291b:000013130000000000000000
#0291a:24
#03112:1400001314000013
#03117:0014000000140000
#0311a:00140014
#03115:0000001400000014
#0311b:0013000000130000
#0361a:14
#0361b:00131313
#03618:0013001300130000
#03614:00000000001200000000000000000000
#03615:008100000000000000000000000000000000000000000000000000000000000000000000000000000000000000000000000000000000000000000000000000000000000000000000000000000000000000000000000000000000000000000000000000000000000000000000000000000000000000000000000000000000000000000000000000000000000000000000000000000000000000000000000000000000000000000000000000000000000000000000000000000000000000000000000000000000000000000000000000000000000000000000000000000000000000000000000000000000000000000000000000000000000000000000000000000000000000000000000000000000000000000000000000000000000000000000000000000000000000000000000000000000000000000000120000000000000000000000000000000000000000000000000000000000000000000000000000000000000000000000000000000000000000000000000000000000000000000000
#03619:0000000000000012
#03613:0024
#03612:248100000000000000000000000000000000000000000000000000000000000000000000000000000000000000000000000000000000000000000000000000000000000000000000000000000000000000000000000000000000000000000000000000000000000000000000000000000000000000000000000000000000000000000000000000000000000000000000000000000000000000000000000000000000000000000000000000000000000000000000000000000000000000000000000000000000000000000000000000000000000000000000000000000000000000000000000000000000000000000000000000000000000000000000000000000000000000000000000000000000000000000000000000000000000000000000000000000000000000000000000000000000000000000000000000000000000000000000000000000000000000000000000000000000000000000000000000000000000000000000000000000000000000000000000000000000000000000000
#0371b:13131313
#03719:0012000000000000
#03716:00000000001200000000000000120000
#0371a:0000001100000000
#03718:0000000000110012
#03714:24
#03715:0024
#03812:13131313
#03816:2412000000000000
#03819:00000000001200000000000000120000
#03817:0000001224000000
#03818:0000000000120000
#03815:0000000000000011
#03912:13131313
#03915:0012001200130013
#03919:00000000001200002400000000000000
#03918:24000000000000007100000000120000
#0391d:0071
#04412:18
#0441a:24
#04717:00000012
#05215:001300000013001300000000
#05218:001313001300
#0521b:230000230000230000231313
#05212:13131313
#05318:001400000000000000160013
#05319:001400150000
#05315:000015000013
#05317:240000000015000000000000
#05314:000000000000001600000000
#05316:000016
#0531b:13
#0531a:00140000
#05313:00250000
#05312:00002623
#05418:001300000013001300000000
#05415:001313001300
#05412:230000230000230000231313
#0541b:13131313
#05518:000000250000260000001400
#05516:000000001500001600000014
#05514:001400000015000016000000
#05513:001400000000
#05512:13141516
#05515:24
#0551a:00000024
#05614:001400000000001400000000
#05618:001400
#05616:000014000014000014000000
#0561a:140000240000140000241414
#05612:24142414
#05716:001400000000000014000014
#05718:001400000000
#05714:000014000014
#05717:000000000014000000000000
#05712:140000240000241400240000
#0571a:24242424
#05818:001400000000001400000000
#05814:001400
#05816:000014000014000014000000
#05812:140000240000140000241414
#0581a:24142414
#06712:2300001c
#06715:530000530000001300130013001300130013000000000000
#06718:000000261313231313000000
#06713:005300000000000000000000000000000000000000000000
#06714:005300000000000000000000
#06716:005300000000
#06717:000000000053000000000000000000000000000000000000
#07412:1300000000142800
#0741b:13130000
#07418:00000013000000000000000000000000
#07416:00000000000000000000001400000000
#07415:0023000013000000
#07518:00000013000013000000001326000000
#0751b:1300130000130000
#07515:00002300001300000000000000001300
#07512:13000000000000130000000000000000
#07816:1400141414001400
#0781b:13
#07812:00130000
#07916:1414141414001400
#07912:1313
#0791b:00130013
#08016:1400140014541400
#0801b:53535300
#0801a:0053000000000053005300000000005300530000000000000000000000000000
#08019:00530053005300530053000000000000
#08018:0000005300530000000000530053000000000053000000000000000000000000
#08017:0053005300000000
#08015:0000000000000000000000000000000000000000005300000000000000000000
#08014:00000000000000000000005300000000
#08013:0000000000000000000000000000000000000000000000530000000000000000
#08012:00000053
#10618:0000000000000000000000000000000000000000000000000013001300002600
#10616:24002400002400242400240000000000
#1061a:00240024000000000024002400000000
#10612:0000242400000000
#10615:00000000000000000000000023232300
#0971a:001200000000000012001200
#0971c:000012000000000000220000
#09716:000012220000
#09718:220000120012001200000012
#09714:00220012
#09818:001200000000000000001200
#09816:000012000000000000000012
#09819:000012220000
#09817:000000000012001200000000
#09815:000012
#09814:00120000
#09813:00000012
#0981b:00220000
#0981a:22000022
#09916:001200000000000000000012
#09914:001200000000
#09917:000012220000
#09915:000000000012001200120000
#09913:000012
#09912:00120000
#09918:220000000012
#09919:00220000
#0991a:00000022
#1001a:12220012
#10016:001200000012001200000012
#10018:001212220000
#10014:220000120000000012001200
#10012:00000022
#1011a:001200000000001200001200
#1011c:001200001200
#10114:001200
#10116:000000000012000000220000
#10118:220000000000220000000012
#10112:00220000
#10214:001200000000001200000000
#10218:000012000012000012000012
#1021a:000012000012
#1021c:00120012
#10216:22222222
#10314:001200000000001200000000
#10318:000012000012000012000000
#1031a:001200
#1031c:00120012
#10312:00000012
#10316:22222200
#0401b:00131313
#04018:0013001300130000
#04014:00000000001200000000000000000000
#04015:008100000000000000000000000000000000000000000000000000000000000000000000000000000000000000000000000000000000000000000000000000000000000000000000000000000000000000000000000000000000000000000000000000000000000000000000000000000000000000000000000000000000000000000000000000000000000000000000000000000000000000000000000000000000000000000000000000000000000000000000000000000000000000000000000000000000000000000000000000000000000000000000000000000000000000000000000000000000000000000000000000000000000000000000000000000000000000000000000000000000000000000000000000000000000000000000000000000000000000000000000000000000000000000000120000000000000000000000000000000000000000000000000000000000000000000000000000000000000000000000000000000000000000000000000000000000000000000000
#04019:0000000000000012
#04013:0024
#04012:248100000000000000000000000000000000000000000000000000000000000000000000000000000000000000000000000000000000000000000000000000000000000000000000000000000000000000000000000000000000000000000000000000000000000000000000000000000000000000000000000000000000000000000000000000000000000000000000000000000000000000000000000000000000000000000000000000000000000000000000000000000000000000000000000000000000000000000000000000000000000000000000000000000000000000000000000000000000000000000000000000000000000000000000000000000000000000000000000000000000000000000000000000000000000000000000000000000000000000000000000000000000000000000000000000000000000000000000000000000000000000000000000000000000000000000000000000000000000000000000000000000000000000000000000000000000000000000000
#0401a:24
#04010:41
#0411b:13131313
#04119:0012000000000000
#04116:00000000001200000000000000120000
#0411a:0000001100000000
#04118:0000000000110012
#04114:24
#04115:0024
#04212:13131313
#04216:2412000000000000
#04219:00000000001200000000000000120000
#04217:0000001224000000
#04218:0000000000120000
#04215:0000000000000011
#04312:00140014001400150015001600160016
#04318:2413000071000000
#04319:00132400
#0431a:0000001300000000
#04315:0000000000130000
#04316:00000013
#04317:0000000000000013
#0431d:0071
#06618:0013000000130053
#06615:00000013000000000000001300000000
#06612:2500252525002500
#06619:250000000000250000250000250000000000000053000000
#0661b:00000023
#0661a:000000000000000000000000000000000000005300000000
#06617:000000000000000000000053
#06616:000000000000000000000000000000000000000000000053
#06515:0013000000130000
#06518:0000001300000000
#06512:2500250025002525
#06519:2500250025002525
#06418:0000000000000013
#06412:25252525
#06419:25252525
#10512:0000000000002424
#10516:00000000000000000000000000240024
#10712:2600006c
#10718:00250024002300220062000000000000
#10713:0025000000000000
#10714:0000240000620000
#10715:0000000000000000000000002300000000000000006200000000000000000000
#10716:00000000000000002200006200000000
#10717:0000000000000000000000000000000000620000000000620000000000000000
#10719:0000000000000000000000000000000000000062000000000000000000000000
#1071a:0000000000620000
#0015b:0013
#00852:0014
#01456:00000014
#01452:00000013
#0165a:0054
#02752:00000014
#03552:14141400
#03558:00140000
#03556:0014
#0355a:14
#04856:00000012
#04952:00000012
#04958:00001212
#0505c:00000012
#07058:0000001600000000
#07056:00000018
#07052:1c
#07152:00000016
#0715b:00000000000000530000000000000000
#07352:00000014
#0725a:00140014
#07252:0014
#08256:14141414
#08356:14141400
#08658:16
#08652:1614
#0865a:00000014
#0875b:0000130000130000
#08752:00000000000000130000000013000000
#08855:00140000
#08852:0014
#08858:00000046
#00452:16161616
#00552:16161616
#00652:16161616
#00752:16161616
#0095a:14
#00952:0014
#0105a:1414
#01052:00140000
#01252:0014
#01257:00130000
#01256:00000013
#0135a:14
#01357:00130000
#01352:0014
#0185a:0054
#01952:0054
#02557:5252
#0255b:00520052
#02856:00540018
#02956:00640000
#02952:00000018
#0305b:00530053
#03052:0053
#03152:5454
#03157:0024000000240000
#0315a:00640064
#03155:0000002400000024
#03352:2313
#03357:00530000
#02152:00000014
#0215a:0054
#04452:58
#0445a:44
#0515a:00120000
#06752:0000001c
#05952:00000014
#06058:00160000
#06052:00000016
#06152:00160000
#06158:00000016
#06258:00160000
#06252:00000016
#06852:00160016
#06858:0016
#07552:00000000000000630000000000000000
#07558:00000016
#07452:0000001600001800
#07756:00000014
#0775a:00140000
#07856:14141414
#07956:14141414
#08056:14141414
#08156:14141414
#09352:0000001c
#08555:00160000
#0855a:00000000000000440000000000000000
#08552:0000000000340000
#09058:00000046
#09156:00000013
#1035c:00000052
#10352:00000052
#03655:005100000000000000000000000000000000000000000000000000000000000000000000000000000000000000000000000000000000000000000000000000000000000000000000000000000000000000000000000000000000000000000000000000000000000000000000000000000000000000000000000000000000000000000000000000000000000000000000000000000000000000000000000000000000000000000000000000000000000000000000000000000000000000000000000000000000000000000000000000000000000000000000000000000000000000000000000000000000000000000000000000000000000000000000000000000000000000000000000000000000000000000000000000000000000000000000000000000000000000000000000000000000000000000000000000000000000000000000000000000000000000000000000000000000000000000000000000000000000000000000000000000000000000000000000000000000000000000000
#03652:005100000000000000000000000000000000000000000000000000000000000000000000000000000000000000000000000000000000000000000000000000000000000000000000000000000000000000000000000000000000000000000000000000000000000000000000000000000000000000000000000000000000000000000000000000000000000000000000000000000000000000000000000000000000000000000000000000000000000000000000000000000000000000000000000000000000000000000000000000000000000000000000000000000000000000000000000000000000000000000000000000000000000000000000000000000000000000000000000000000000000000000000000000000000000000000000000000000000000000000000000000000000000000000000000000000000000000000000000000000000000000000000000000000000000000000000000000000000000000000000000000000000000000000000000000000000000000000000
#0395d:0021
#03958:0021
#0435d:0021
#04358:0021
#04055:005100000000000000000000000000000000000000000000000000000000000000000000000000000000000000000000000000000000000000000000000000000000000000000000000000000000000000000000000000000000000000000000000000000000000000000000000000000000000000000000000000000000000000000000000000000000000000000000000000000000000000000000000000000000000000000000000000000000000000000000000000000000000000000000000000000000000000000000000000000000000000000000000000000000000000000000000000000000000000000000000000000000000000000000000000000000000000000000000000000000000000000000000000000000000000000000000000000000000000000000000000000000000000000000000000000000000000000000000000000000000000000000000000000000000000000000000000000000000000000000000000000000000000000000000000000000000000000000
#04052:005100000000000000000000000000000000000000000000000000000000000000000000000000000000000000000000000000000000000000000000000000000000000000000000000000000000000000000000000000000000000000000000000000000000000000000000000000000000000000000000000000000000000000000000000000000000000000000000000000000000000000000000000000000000000000000000000000000000000000000000000000000000000000000000000000000000000000000000000000000000000000000000000000000000000000000000000000000000000000000000000000000000000000000000000000000000000000000000000000000000000000000000000000000000000000000000000000000000000000000000000000000000000000000000000000000000000000000000000000000000000000000000000000000000000000000000000000000000000000000000000000000000000000000000000000000000000000000000
#0405a:44
#01752:00540000
#0175a:0014
#02052:0054
#02252:0054
#08958:00460000
#08952:3600003c
#09252:00360036
#09258:0046
#0475c:00000012
#04757:00000012
#10752:0000001c
#005380:00000013
#006380:23
#010360:00000014
#0103a0:0000000000000024
#011360:14
#011320:0024000000000000
#011360:00140000
#0113a0:0000002400000000
#011360:0014
#011320:0000000000240000
#011360:00000014
#0113a0:0000000000000024
#016320:13333300
#0163b0:00000033
#0173b0:33330000
#017320:00003333
#018320:33333300
#0183b0:00000033
#0193b0:33333300
#019320:00000033
#020320:23
#0163a1:0014
#016321:00000024
#017321:0000143400000000
#0173a1:0024
#0183a1:0014
#018321:00000024
#018321:0000000000000014
#019321:0024000000000000
#019321:0014
#0193a1:00000024
#0203b1:13333300
#020321:00000033
#021321:33333300
#0213b1:00000033
#0223b1:33333300
#022321:00000033
#023321:23
#020320:0014
#0203a0:00000024
#0213a0:0014
#021320:00000024
#022320:0014
#0223a0:00000024
#025371:1252
#0253b1:00520052
#026371:22
#0273a1:00001424
#027341:0000000000340000
#028361:00140000
#0283a1:0024
#029361:00140000
#029321:0024
#0303b1:00130000
#030371:0023
#030320:0013
#030360:00000023
#0303b1:00000013
#031371:23
#031320:14240000
#031370:0054000000000000
#0313a1:00142400
#031351:0000005400000000
#031320:00001424
#031370:0000000000540000
#0313a1:00000014
#031351:0000000000000054
#0323a1:24
#032351:000000000000000000000014
#033351:24
#033320:13
#033370:002300000000
#0333a1:000014240000000000000000
#033370:00130000
#033320:000000000023000000000000
#033351:000000000014240000000000
#034321:1434
#0343a1:00340034
#035321:24
#0343a0:1434
#034320:00340034
#0353a0:24
#044320:18
#0463c0:0052
#0473c0:00000022
#069320:0000001c
#070320:2c
#070380:0000162600000000
#070321:0000001626000000
#0713b1:00000000000000130000000000000000
#071351:0000000000230000
#074321:0000162600000000
#074380:0000001626000000
#075320:00000000000000130000000000000000
#075380:0000000000230000
#076360:0000000000001424
#0783b0:00001323
#085320:00000000000018280000000000000000
#085360:00000000000000000018280000000000
#085320:00000016
#086320:26
#085381:00000016
#086381:26
#090351:0000132300000000
#091361:0000000000132300
#0923b1:1323000000000000
#1033c1:00000012
#105371:00000022
#001980:0000000000000012
#0029c0:22
#036920:001100000000000000000000000000000000000000000000000000000000000000000000000000000000000000000000000000000000000000000000000000000000000000000000000000000000000000000000000000000000000000000000000000000000000000000000000000000000000000000000000000000000000000000000000000000000000000000000000000000000000000000000000000000000000000000000000000000000000000000000000000000000000000000000000000000000000000000000000000000000000000000000000000000000000000000000000000000000000000000000000000000000000000000000000000000000000000000000000000000000000000000000000000000000000000000000000000000000000000000000000000000000000000000000000000000000000000000000000000000000000000000000000000000000000000000000000000000000000000000000000000000000000000000000000000000000000000000000
#036970:0051
#0399d0:0051
#0399a0:000000000000000000000000000000000000000000000000000000000000000000000000000000000000000000000000000000000000000000000000000000000000000000000000000000000000000000000000000000000000000000000000000000000000000000000000000000000000000000000000000000000000000000000000000000000000000000000000000000000000000000000000000000000000000000000000000000000000000000000000000000000000000000000000000000000000000000000000000000000000000000000000000000000000000000000000000000000000000000000000000000000000000000000000000000000000000000000000000000000000000000000000000000000000000000000000000000000000000000000000000000000000000000000000000000000000000000000000000000000000000000000000000000000000000000000000000000000000000000000000000000000000000000000000000000000000000000000000000000000000000000000000000000000000000000000000000000000000000000000000000000000000000000000000000000000000000000000000000000000000000000000000000000000000000000000000000000000000000000000000000000000000000000000000000000000000000000000000000000000000000000000000000000000000000000000000000000000000000000000000000000000000000000000000000000000000000000000000000000000000000000000000000000000000000000000000000000000000000000000000000000000000000000000000000000000000000000000000000000000000000000000000000000000000000000000000000000000000000000000000000000000000000000000000000000000000000000000000000000000000000000000000000000000000000000000000000000000000000000000000000000000000000000000000000000000000000000000000000000000000000000000000000000000000000000000000000000000000000000000000000000000000000000000000000000000000000000000000000000000000000000000000000000000000000000000000000000000000000000000000000000000000000000000000000000000000000000000000000000000000000000000000000000000000000000000000000000000000000000000000000000000000000000000000000000000000000000000000000000000000000000000000000000000000000000000000000000000000000000005151
#0409a0:21
#036951:001100000000000000000000000000000000000000000000000000000000000000000000000000000000000000000000000000000000000000000000000000000000000000000000000000000000000000000000000000000000000000000000000000000000000000000000000000000000000000000000000000000000000000000000000000000000000000000000000000000000000000000000000000000000000000000000000000000000000000000000000000000000000000000000000000000000000000000000000000000000000000000000000000000000000000000000000000000000000000000000000000000000000000000000000000000000000000000000000000000000000000000000000000000000000000000000000000000000000000000000000000000000000000000000000000000000000000000000000000000000000000000000000000000000000000000000000000000000000000000000000000000000000000000000000000000000000000000000
#036921:0051
#039981:0051
#0399d1:000000000000000000000000000000000000000000000000000000000000000000000000000000000000000000000000000000000000000000000000000000000000000000000000000000000000000000000000000000000000000000000000000000000000000000000000000000000000000000000000000000000000000000000000000000000000000000000000000000000000000000000000000000000000000000000000000000000000000000000000000000000000000000000000000000000000000000000000000000000000000000000000000000000000000000000000000000000000000000000000000000000000000000000000000000000000000000000000000000000000000000000000000000000000000000000000000000000000000000000000000000000000000000000000000000000000000000000000000000000000000000000000000000000000000000000000000000000000000000000000000000000000000000000000000000000000000000000000000000000000000000000000000000000000000000000000000000000000000000000000000000000000000000000000000000000000000000000000000000000000000000000000000000000000000000000000000000000000000000000000000000000000000000000000000000000000000000000000000000000000000000000000000000000000000000000000000000000000000000000000000000000000000000000000000000000000000000000000000000000000000000000000000000000000000000000000000000000000000000000000000000000000000000000000000000000000000000000000000000000000000000000000000000000000000000000000000000000000000000000000000000000000000000000000000000000000000000000000000000000000000000000000000000000000000000000000000000000000000000000000000000000000000000000000000000000000000000000000000000000000000000000000000000000000000000000000000000000000000000000000000000000000000000000000000000000000000000000000000000000000000000000000000000000000000000000000000000000000000000000000000000000000000000000000000000000000000000000000000000000000000000000000000000000000000000000000000000000000000000000000000000000000000000000000000000000000000000000000000000000000000000000000000000000000000000000000000000000000000000005151
#0409d1:21
#040921:001100000000000000000000000000000000000000000000000000000000000000000000000000000000000000000000000000000000000000000000000000000000000000000000000000000000000000000000000000000000000000000000000000000000000000000000000000000000000000000000000000000000000000000000000000000000000000000000000000000000000000000000000000000000000000000000000000000000000000000000000000000000000000000000000000000000000000000000000000000000000000000000000000000000000000000000000000000000000000000000000000000000000000000000000000000000000000000000000000000000000000000000000000000000000000000000000000000000000000000000000000000000000000000000000000000000000000000000000000000000000000000000000000000000000000000000000000000000000000000000000000000000000000000000000000000000000000000000
#040971:0051
#0439d1:0051
#0439a1:000000000000000000000000000000000000000000000000000000000000000000000000000000000000000000000000000000000000000000000000000000000000000000000000000000000000000000000000000000000000000000000000000000000000000000000000000000000000000000000000000000000000000000000000000000000000000000000000000000000000000000000000000000000000000000000000000000000000000000000000000000000000000000000000000000000000000000000000000000000000000000000000000000000000000000000000000000000000000000000000000000000000000000000000000000000000000000000000000000000000000000000000000000000000000000000000000000000000000000000000000000000000000000000000000000000000000000000000000000000000000000000000000000000000000000000000000000000000000000000000000000000000000000000000000000000000000000000000000000000000000000000000000000000000000000000000000000000000000000000000000000000000000000000000000000000000000000000000000000000000000000000000000000000000000000000000000000000000000000000000000000000000000000000000000000000000000000000000000000000000000000000000000000000000000000000000000000000000000000000000000000000000000000000000000000000000000000000000000000000000000000000000000000000000000000000000000000000000000000000000000000000000000000000000000000000000000000000000000000000000000000000000000000000000000000000000000000000000000000000000000000000000000000000000000000000000000000000000000000000000000000000000000000000000000000000000000000000000000000000000000000000000000000000000000000000000000000000000000000000000000000000000000000000000000000000000000000000000000000000000000000000000000000000000000000000000000000000000000000000000000000000000000000000000000000000000000000000000000000000000000000000000000000000000000000000000000000000000000000000000000000000000000000000000000000000000000000000000000000000000000000000000000000000000000000000000000000000000000000000000000000000000000000000000000000000000000000000000000000005151
#0449a1:21
#040950:001100000000000000000000000000000000000000000000000000000000000000000000000000000000000000000000000000000000000000000000000000000000000000000000000000000000000000000000000000000000000000000000000000000000000000000000000000000000000000000000000000000000000000000000000000000000000000000000000000000000000000000000000000000000000000000000000000000000000000000000000000000000000000000000000000000000000000000000000000000000000000000000000000000000000000000000000000000000000000000000000000000000000000000000000000000000000000000000000000000000000000000000000000000000000000000000000000000000000000000000000000000000000000000000000000000000000000000000000000000000000000000000000000000000000000000000000000000000000000000000000000000000000000000000000000000000000000000000
#040920:0051
#043980:0051
#0439d0:000000000000000000000000000000000000000000000000000000000000000000000000000000000000000000000000000000000000000000000000000000000000000000000000000000000000000000000000000000000000000000000000000000000000000000000000000000000000000000000000000000000000000000000000000000000000000000000000000000000000000000000000000000000000000000000000000000000000000000000000000000000000000000000000000000000000000000000000000000000000000000000000000000000000000000000000000000000000000000000000000000000000000000000000000000000000000000000000000000000000000000000000000000000000000000000000000000000000000000000000000000000000000000000000000000000000000000000000000000000000000000000000000000000000000000000000000000000000000000000000000000000000000000000000000000000000000000000000000000000000000000000000000000000000000000000000000000000000000000000000000000000000000000000000000000000000000000000000000000000000000000000000000000000000000000000000000000000000000000000000000000000000000000000000000000000000000000000000000000000000000000000000000000000000000000000000000000000000000000000000000000000000000000000000000000000000000000000000000000000000000000000000000000000000000000000000000000000000000000000000000000000000000000000000000000000000000000000000000000000000000000000000000000000000000000000000000000000000000000000000000000000000000000000000000000000000000000000000000000000000000000000000000000000000000000000000000000000000000000000000000000000000000000000000000000000000000000000000000000000000000000000000000000000000000000000000000000000000000000000000000000000000000000000000000000000000000000000000000000000000000000000000000000000000000000000000000000000000000000000000000000000000000000000000000000000000000000000000000000000000000000000000000000000000000000000000000000000000000000000000000000000000000000000000000000000000000000000000000000000000000000000000000000000000000000000000000000000000000000005151
#0449d0:21
#0699a0:0014000000000000
#069920:00240000
#077920:14
#0779a0:00240000
#0809b0:13532300
#080970:0053005300000000
#0849a0:0014
#084920:0000000000240000
#0849a1:0000000000140000
#084921:00000024
#103921:00000012
#105971:00000022
#107961:0012
#1079a1:0000000000220000
#107940:0000000000120000
#107970:0000000000000000000000000000000000000000000000220000000000000000
