This file was generated by Ched 2.7.0.0.
#TITLE ""
#ARTIST ""
#DESIGNER ""
#DIFFICULTY 0
#PLAYLEVEL
#SONGID ""
#WAVE ""
#WAVEOFFSET 0
#JACKET ""
#REQUEST "ticks_per_beat 480"
#00002: 4
#BPM01: 200
#BPM02: 150
#BPM03: 160
#BPM04: 170
#BPM05: 180
#BPM06: 185
#BPM07: 190
#BPM08: 195
#00008: 01
#10508: 00000001
#06608: 00000001
#09508: 00000002
#04708: 02
#06008: 00000003
#06108: 00000004
#06208: 00000005
#06308: 00000006
#06408: 00000007
#06508: 00000008
#TIL00: ""
#VOLUME: ""
#HISPEED 00
#MEASUREHS 00
#0001a:14
#00014:00140000
#00018:00001414
#00112:14
#00118:00140000
#00114:0014
#0021a:1414
#00214:00140000
#00312:1414
#00318:00140000
#0041a:14141414
#00514:14141414
#00618:14141414
#00712:14141414
#00818:00140000
#00814:0014
#0081a:00000014
#00812:24
#00912:14
#00918:00140000
#00914:0014
#0091a:00000014
#01218:00140000
#01212:0014
#0121a:00000014
#01214:24
#01314:14
#01318:00140000
#01312:0014
#0131a:00000014
#01414:1414
#01418:00140000
#01412:00000024
#0141a:00000024
#01612:14140000
#01618:00001414
#01610:41
#01714:14140000
#0171a:00001414
#01812:14140000
#01818:00001414
#01914:14140000
#0191a:00001414
#0201a:24140000
#02014:00001414
#02118:14140000
#02112:00001414
#0221a:14140000
#02214:00001414
#02814:0014
#0281a:14
#02812:14
#02810:41
#02912:14
#0291a:14
#02918:0014
#0301a:14
#03012:14
#03014:0014
#03112:14
#0311a:14
#03118:0014
#0321a:14
#03212:14
#03214:0014
#02418:0014
#02514:1414
#02618:14140000
#02614:00001414
#02718:14141400
#03312:14
#0331a:14
#03318:0014
#0341a:14141414
#03412:14141414
#0351a:14
#03512:14
#03612:14
#03613:00140000
#03614:0014
#03615:00000014
#0371a:14
#03719:00140000
#03718:0014
#03717:00000014
#03812:14
#03813:00140000
#03814:0014
#03815:00000014
#0391a:14
#03919:00140000
#03918:0014
#03917:00000014
#04015:14
#04014:00140000
#04013:0014
#04012:00000014
#04010:41
#04117:14
#04118:00140000
#04119:0014
#0411a:00000014
#04215:14
#04214:00140000
#04213:0014
#04212:00000014
#0471a:00000014
#04712:00000014
#0481a:00000014
#04812:00000014
#04918:00140000
#04914:0014
#04912:00000014
#0491a:00000014
#0501a:00000014
#05012:00000014
#0511a:00000014
#05110:00000041
#05214:14
#0521a:00140000
#05212:00000014
#05318:14000014
#05312:00140000
#05412:14
#05418:00140000
#05414:00000014
#0551a:14000014
#05514:00140000
#05614:14
#0561a:00140000
#05612:00000014
#05718:14000014
#05712:00140000
#05812:14
#05818:00140000
#05814:00000014
#0591a:14000014
#05914:00140000
#05912:00000014
#0591f:00000011
#0631a:00000014
#0641a:14141400
#06414:00000014
#06514:14141400
#06518:00000014
#06618:14141400
#06612:00000014
#06712:14141424
#06818:00000014
#06914:1414
#06918:00140000
#07012:00140000
#0701a:0014
#07014:00000014
#0701f:21
#07118:14
#07112:00140000
#0711a:0014
#07110:41
#0741a:00140000
#07412:0014
#07418:00000014
#07514:14
#0751a:00140000
#07512:0014
#0781a:14141400
#07814:00000014
#07914:14141400
#07918:00000014
#08018:14141400
#08012:00000014
#08112:14141400
#0811a:0000000000001434
#08618:00140014
#08614:0014
#08712:14
#0871a:00140000
#08714:0014
#08718:00000014
#08812:14
#0881a:00140000
#08814:0014
#08818:00000014
#08912:14
#0891a:00140000
#08914:00000000000000000034343400000000
#09014:00140014
#09018:0014
#0901a:14
#09012:14
#0911a:14
#09112:00140000
#09118:0014
#09114:00000014
#0921a:14
#09212:00140000
#09218:0014
#09214:00000014
#0931a:14
#09312:00140000
#09318:00000000000000000034343400000000
#09614:00140000
#09618:00000014
#09712:00140000
#09718:00000014
#09814:00140000
#0981a:00000014
#09914:00140000
#09918:00000014
#10018:14
#10014:00141400
#1001a:00000014
#1011a:14
#10112:00141400
#0771a:00000024
#0841a:34343434343434343434343400000000
#0831a:34003400340034003400340034343434
#0821a:3434343434343434
#08510:00000041
#10516:00000000000000000000000054545454
#10616:5400540054005400540054005400540054005400540054000056005654005400
#10614:00000000000000000000000056560000
#10716:5400540054005400540054005400540000580058005800580000000000000000
#10712:0000000000000000585858586c000000
#00154:0014
#0025a:0014
#00352:0014
#04458:14
#0595a:00000054
#05952:00000064
#08456:00000014
#0815a:00000054
#010340:14240000
#0103a0:00001424
#011320:14240000
#011380:00001424
#023380:14
#024380:24
#043380:14343434343434343434343434000000
#044380:24
#0593a0:00000014
#063380:00240000
#059321:00000014
#063341:00240000
#069381:00000014
#070381:24
#071341:00000014
#072341:24
#0723a1:00142400
#072321:00000014
#073321:24
#073381:00142400
#073341:00000014
#074341:24
#075381:00000014
#076381:24
#076321:00142400
#0763a1:00000014
#0773a1:24
#077341:00142400
#0813a1:0000000000001434
#0823a1:3434343434343434
#0833a1:34003400340034003400340034343434
#0843a1:34343434343434343434343400000000
#084361:00000024
#085321:00000014
#086321:24
#0853a0:00000014
#0863a0:24
#089340:00000000000000001434343400000000
#089320:00000024
#093380:00000000000000001434343400000000
#0933a0:00000034
#0953a0:00000024
#101380:00000014
#102380:24
#102340:00142400
#1023a0:00000014
#1033a0:24
#103320:00142400
#103380:00000014
#105380:00240000
#105960:00000014
#107960:00000024
