This file was generated by Ched 2.7.0.0.
#TITLE ""
#ARTIST ""
#DESIGNER ""
#DIFFICULTY 0
#PLAYLEVEL
#SONGID ""
#WAVE ""
#WAVEOFFSET 0
#JACKET ""
#REQUEST "ticks_per_beat 480"
#00002: 4
#BPM01: 139
#00008: 01
#TIL00: ""
#VOLUME: ""
#HISPEED 00
#MEASUREHS 00
#0051a:14
#00614:14
#00714:14
#00818:14
#00918:14
#01012:14
#01112:14
#01318:14
#01414:14
#01514:14
#0161a:14
#0171a:14
#01812:14
#01912:14
#02114:14
#02218:14
#02314:14
#0241a:14
#02512:14
#0261a:14
#02712:14
#02710:41
#03812:0016
#03818:26
#0381f:21
#03918:16
#03912:0016
#03910:41
#04212:16
#04218:0016
#04312:16
#04318:0016
#05818:14
#05810:41
#05914:14
#0041a:14
#01218:14
#01210:41
#02018:14
#02010:41
#03414:14
#03518:14
#04412:1616
#04618:0016
#04612:26
#04712:16
#04718:0016
#05018:16
#05012:0016
#05010:41
#05118:16
#05112:0016
#05218:1616
#0281f:11
#0541a:24
#05612:24
#06212:26
#06218:0026
#000390:14
#001390:24
#002330:14
#003330:24
#028380:14
#029380:24
#030340:14
#031340:24
#0323a0:14
#0333a0:24
#036320:14
#037320:24
#040380:1636
#041380:26
#045380:1626
#048320:1636
#049320:26
#053320:1626
#0543a0:14
#0553a0:24
#056320:14
#057320:24
#0603a0:14
#0613a0:24
#063320:16000000000000000000000000003636
#064320:36
#066330:0000002400000000
