This file was generated by Ched 2.7.0.0.
#TITLE ""
#ARTIST ""
#DESIGNER ""
#DIFFICULTY 0
#PLAYLEVEL
#SONGID ""
#WAVE ""
#WAVEOFFSET 0
#JACKET ""
#REQUEST "ticks_per_beat 480"
#00002: 4
#BPM01: 139
#00008: 01
#TIL00: ""
#VOLUME: ""
#HISPEED 00
#MEASUREHS 00
#0061b:13131313
#00612:0000001300001300
#00618:0000000000130000
#00615:0000000000000013
#00818:0013000000130013
#00812:13131313
#0081b:13
#00018:13
#00015:00000013
#0041b:23131313
#00415:0000001300001300
#00418:0000000000130000
#00412:0000000000000013
#0071b:0000000000130000
#00718:1300000000000013
#00715:0000131300001300
#00912:13131313
#0091b:1300000000130000
#00918:0000001300000013
#0101b:0000001300001300
#01012:13131313
#01018:0000000000130000
#01015:0000000000000013
#01212:00131313
#01218:0000001300001300
#0121b:0000000013000033
#01215:0000000000130000
#01210:41
#01312:13131313
#01318:0000001300000013
#0131b:00001313
#01315:0000000000130000
#01412:13131313
#01418:0000001300130000
#0141b:00001313
#01415:0000000000000013
#01518:13000013
#01512:13131313
#0151b:0000001300000013
#01515:0000000000130000
#01612:13000013
#01615:0013000000130013
#0161b:00131313
#01618:13
#01818:0013000000000000
#01812:00130013
#0181b:13131300
#01816:0013
#01817:00000013
#01814:0000001300000013
#01819:0000000000130000
#0191b:13
#01912:0000001300000000
#01916:13
#01917:0000001300000000
#0201b:13
#02016:1300001300000000
#02017:00130000
#02012:0000000000130000
#02010:41
#02117:0013000000130000
#02115:00000013
#02118:0000000000000013
#0211b:0000001300000000
#02218:0000000000130013
#02215:00000053005300000000000013000000
#02212:5353
#02213:00530000000000530000000000000000
#02214:0053005300000000
#02216:00530000
#02312:0013
#02315:0000000000130000
#02318:0013000000001300
#0231b:0000001300000013
#02518:0000000000130013
#02515:00000013
#0321b:0013000013000013
#03215:1300000000130000
#03218:13000013
#03212:0013000013000013
#03318:1300001300000013
#03312:00001313
#0331b:00001313
#03315:1300000000130000
#03516:00140000
#0351b:0000000000130000
#03518:00000013
#03515:0000000000000013
#03512:2400002400000000
#0351a:2400002400000000
#03815:00130000
#03819:00000013
#03816:0000000000000013
#03817:13
#0381b:0000001300000013
#03812:6300000000130000
#0381f:21
#0391b:0000001300000000
#03918:0013
#03917:0013000000000013
#03912:0013000000000000
#03915:0000000000130000
#03910:41
#04017:13
#04018:0000000000130000
#04015:00000013
#04016:0000131300000000
#04012:1300000000000013
#0401b:0000001300000000
#04118:1300000000130000
#0411b:00000013
#04115:1300000000000013
#04112:0013
#04212:1300130013000013
#04218:0013000000130013
#04215:0013000000001300
#0421b:1313
#0431b:0013000000000000
#04314:0000001300000000
#04319:0000001300000000
#04312:0000000000130000
#04317:0000000000130013
#0441b:0013130000001313
#04417:1300001313000000
#04412:2323
#04416:0000230000002323
#05419:0014001400140014001400140014001400140014001400140014001400140014
#0541a:00120012001200120012001200120012
#05418:2616161616161616
#05412:53
#05413:00530000000000005300000000000000
#05414:00005300000000530000000000000000
#05415:00000053000053000000000000000000
#0581b:13
#05818:0000000013000013
#05815:00000053000053000000130000000000
#05812:53000013
#05810:41
#05813:00530000000000005300000000000000
#05814:00005300000000530000000000000000
#05915:13
#05912:0000001300000000
#0591b:5300000000130000
#05918:00000053000053000000000023000000
#0591a:00530000000000005300000000000000
#05919:00005300000000530000000000000000
#06412:14
#0011b:13
#00117:0013
#00212:13
#00218:0000000000000013
#00215:00000000000000000000000000000013
#00318:13
#00315:0000001313000000
#0031b:00000000000000130000000000000000
#0051b:13131313
#00515:0000001300000013
#00518:0000000000130000
#00512:00000013
#01112:23000000000023000000000000130000
#0111b:23000000000023000000000000130000
#01115:0000260000230000
#01118:0000000000230000
#02815:1300130000000013
#02812:0000001313001300
#0281f:11
#02915:1300130000000013
#02912:0000001313001300
#03018:0000130000000013
#0301b:0000001313001300
#03118:1300130000130000
#0311b:0000001313000000
#03115:00000013
#03112:0000000000000013
#04518:0013000000000000
#04519:00130000
#0451a:0000001300000000
#0451b:0013
#04517:0000000000000013
#04512:0000000000000013
#05118:0013
#05115:0000000000130000
#05112:0013000000001300
#05117:00000013
#05119:0000000000000013
#0511b:0000001300000000
#05312:1300002c
#0531b:53
#0551b:00000013
#05512:53000013
#05515:00000053000000000000130000002300
#05513:00530000000000000000000000000000
#05514:0053000000000000
#0551a:0000005300000000
#05519:00000000000000530000000000000000
#05518:0053
#0561b:00000053000053000000130000000000
#0561a:00005300000000530000000013000000
#05619:00530000000000005300000000001300
#05612:23
#05614:00000023
#05613:0000000000000023
#05615:0000000000230000
#05618:53
#0571b:00000053000053000000130000000000
#05718:53000013
#05715:0000000000000013
#05712:23
#05719:00530000000000005300000000000000
#0571a:00005300000000530000000000000000
#06015:00130013000000000000000000000000
#06018:0013001300132613
#06014:00000000001300130000000000000000
#06013:00000000000000000013001300000000
#06012:00000000000000000000000000130013
#0601b:23
#0601a:00240000
#06019:0025
#06312:0000000000000014
#06316:13000000000000000000000000000014
#0631b:13
#0171b:13131313
#01712:1300000000130000
#01715:0000001300000013
#02415:0000001300001300
#0241b:0013
#02418:0000000000130000
#02412:0000000000000013
#0361b:1300000000002323
#03618:0000130023230000
#03615:0000232313000000
#03612:2323000000001300
#04618:00130000
#04614:00000013
#04617:0000000000000013
#04616:13
#04612:0000001300000013
#0461b:1300000000130000
#04712:0000001300000000
#04715:0013
#04716:0013000000000013
#0471b:0013000000000000
#04718:0000000000130000
#04816:13
#04815:0000000000130000
#04818:00000013
#04817:0000131300000000
#0481b:1300000000000013
#04812:0000001300000000
#04915:1300000000130000
#04918:1300000000000013
#04912:00000013
#0491b:0013
#0501b:1300130013000013
#05015:0013000000130013
#05018:0013000000001300
#05012:1313
#05010:41
#05216:1300000000530000
#0521b:13005313
#05217:0000130000000053
#05212:00531353
#05215:00530000000000000000000000000000
#05214:00005300000000000053005300000000
#05213:00000053000000000000000000000000
#05218:00000000005300000000000000000000
#05219:00000000000053000000000000530053
#0521a:00000000000000530000000000000000
#03412:24
#0341a:24
#03712:24242400
#0371a:24242400
#03716:0024002400002300
#0371b:00000023
#03715:00000000000000000000000000630000
#03714:0000000000000063
#03713:00000000000000000000000000000063
#06117:27
#06112:00000024
#0611a:00000024
#0621b:23632300
#06216:23632300
#0621a:00000023
#06217:0023006300000023
#06212:0023006300000023
#06218:0000000000230000
#06215:00000023
#06213:0000000000230000
#06214:00000000006300000000000000000000
#06219:00000000006300000000000000000000
#02612:23242526
#02712:27000022
#0271c:0022000000000000
#0271a:00220000
#02718:0000002200000000
#02716:0022
#02714:0000000000220000
#02710:41
#06617:0000005200000000
#03552:1400001400000000
#0355a:1400001400000000
#03752:0014
#0375a:0014
#00058:53
#00055:00000063
#01258:13000053
#01255:13
#01158:0000000000530000
#01152:13000000000013000000000000230000
#0115b:13000000000013000000000000230000
#01155:0000000000630000
#0135b:00000063
#01358:0000000000000053
#01558:53
#0195b:63000013
#01952:0000005300000000
#01956:63000013
#01957:0000005300000000
#02056:63
#02158:0000000000000053
#03856:0000000000000053
#03857:53
#0385b:0000005300000000
#04057:63
#04056:0000005300000000
#04158:63
#04252:0000000033000063
#04258:0023000000000000
#0425b:63430000
#04356:0013000000000000
#0435b:0013000000000000
#04354:0000001300000000
#04359:0000001300000000
#04352:0000000000130000
#04357:0000000000130000
#05352:3300001c
#0535b:43
#05459:0064006400640064006400640064006400640064006400640064006400640064
#0545a:00220022002200220022002200220022
#05458:2626262626262626
#05652:63
#05752:63
#0585b:63
#05858:0063
#05955:53
#05952:0000006300000000
#06152:00000014
#0615a:00000014
#06157:17
#06452:54
#0015b:63
#00157:0063
#00252:53
#00358:53
#00355:0063
#00758:53
#00755:0000006300000000
#0095b:5300000000530000
#00958:0000006300000053
#0325b:0023000000000063
#03258:53130000
#03252:0023000000000053
#03255:63130000
#03355:23
#03352:0033000000000000
#03358:23
#0335b:0043000000000000
#03452:14
#0345a:14
#03952:0053000000000000
#03955:0000000000530000
#0455b:0013
#04552:0013
#02458:00130000
#02452:00130000
#02652:33343536
#01752:6300000000630000
#01755:0000005300000063
#02555:00130000
#0255b:00130000
#02752:37
#04452:1313
#04456:0000130000000053
#04657:0000000000000063
#04656:63
#04652:0000006300000000
#04856:53
#04857:0000006300000000
#04955:53
#0475b:0063000000000000
#04758:0000000000630000
#0505b:0000000043000053
#05055:0023000000000000
#05052:53330000
#05152:0013000000000000
#05157:0013000000000000
#0635b:53
#06356:53
#000380:13
#0003b0:00000023
#000351:00000013
#001321:23
#0013b0:13
#001370:0033
#0023b0:23
#002321:13
#002351:0000000000000023
#003381:13
#0033b1:0000002300000000
#003351:0013
#004321:23
#007381:13
#0073b1:00230000
#007351:0000001300000000
#007321:0000000000230000
#0093b1:13
#009381:00230000
#009381:0000001300000033
#0093b1:0000000000330000
#0103b1:0023000000000000
#011381:0000000000130000
#0113b1:00000000000000000000000000530000
#012381:23
#011350:0000000000130000
#011320:00000000000000000000000000530000
#012350:23
#012380:00000013
#0123b0:0000000000000033
#0133b0:23
#0133b0:00000013
#013380:0000000000000033
#0143b0:23
#015380:13
#0153b0:00230000
#017320:13
#017350:00230000
#017350:0000001300000033
#017320:0000000000330000
#018320:0023000000000000
#0193b0:13
#019370:00230000
#019361:13
#019321:00230000
#019321:0000001300000000
#019361:0000000000532300
#019370:0000001300000000
#0193b0:0000000000532300
#020360:13
#020320:00230000
#0203b0:0000001300000023
#020370:0000000000330000
#020361:0000000000000013
#021321:0033000000230000
#021361:0000003300000000
#021381:0000000000000013
#0223b1:0023
#023321:1323000000000000
#023351:0000132300000000
#024381:13230000
#024320:13230000
#025350:13230000
#0253b1:13230000
#026381:0013230000000000
#026391:0000001323000000
#0263a1:0000000000132300
#0263b1:0000000000000013
#0273b1:23
#0283b1:13
#028371:0033
#0293b1:33
#029371:0033
#0303b1:23
#030320:13
#030360:0033
#031320:33
#031360:0023
#032380:13230000
#0323b0:0053000000000000
#032351:13230000
#032321:0053000000000000
#032321:0000000000000013
#033351:53
#033321:0023000000000000
#0323b0:0000000000000013
#033380:53
#0333b0:0023000000000000
#038370:13
#0383b0:00230000
#0383b0:0000001300000000
#038370:0000000000230000
#038360:0000000000000013
#039320:0033000000000000
#039360:0000002300000000
#039350:0000000000130000
#039320:0000000000000023
#040370:13
#0403b0:00230000
#040360:0000001300000000
#040320:0000000000230000
#041380:13
#0413b0:0023
#0423b0:13230000
#042380:0053000000000000
#042320:0000000000000013
#043360:0023000000000000
#044360:0000000000000013
#045320:0033333323000000
#046360:13
#046320:00230000
#046320:0000001300000000
#046360:0000000000230000
#046370:0000000000000013
#0473b0:0033000000000000
#047370:0000002300000000
#047380:0000000000130000
#0473b0:0000000000000023
#048360:13
#048320:00230000
#048370:0000001300000000
#0483b0:0000000000230000
#049350:13
#049320:0023
#050320:13230000
#050350:0053000000000000
#0503b0:0000000000000013
#051370:0023000000000000
#054380:1656565656565656
#054390:0054005400540054005400540054005400540054005400540054005400540054
#0543a0:00520052005200520052005200520052
#055380:26
#056320:13
#056350:0023
#057320:13
#057350:00000023
#0583b0:13000023
#058380:0000003333000000
#059350:13000023
#059320:0000003300000000
#063360:13
#063320:00000023
#0633b1:13
#063371:00000023
#064321:14
#066371:0000002200000000
#022920:1323
#022960:00530000
#037960:000000000000000000000000000000000000000000000000000000000000000000000000000000000000000000000000000000000000000000000000000000000000000000000000000000000000000000000000000000000000000000000000000000000000000000000000000000000000000000000000000000000000000000000000000000000000000000000000000000000000000000000000000000000000000000000000000000000000000000000000000000000000000000000000000000000000000000000000000000000000000000000000000000000000000000000000000000000000000000000000000000000000000000000000000000000000000000000000000000000000000000000000000000000000000000000000001300000000000000000000000000000000000000000000000000000000000000000000000000000000000000000000000000000000000000000000000000000000000000000000000000000000000000000000000000000000000000000000
#038920:23
#052960:13
#052920:00230000
#052971:00130000
#0529b1:0023
#052920:00001323
#052960:0000000000530000
#0529b1:00000013
#052971:0000000000000053
#0539b1:23
#054921:13
#054951:00000023000000000000000000000000
#054951:0000001300000000
#054931:0023
#055921:13
#055951:00000023000000000000000000000000
#0559a1:0000001300000000
#055981:0023
#056981:13
#0569b1:00000023000000000000000000000000
#0569b1:0000001300000000
#056991:0023
#057981:13
#0579b1:00000023000000000000000000000000
#0579b1:0000001300000000
#057991:0023
#058921:13
#058951:00000023000000000000000000000000
#058951:0000001300000000
#058931:0023
#0599b1:13
#059981:00000023000000000000000000000000
#059981:0000001300000000
#0599a1:0023
#062961:00130000
#062921:0000002300000000
#0629b0:00130000
#062970:0000002300000000
