This file was generated by Ched 2.7.0.0.
#TITLE ""
#ARTIST ""
#DESIGNER ""
#DIFFICULTY 0
#PLAYLEVEL
#SONGID ""
#WAVE ""
#WAVEOFFSET 0
#JACKET ""
#REQUEST "ticks_per_beat 480"
#00002: 4
#BPM01: 139
#00008: 01
#TIL00: ""
#VOLUME: ""
#HISPEED 00
#MEASUREHS 00
#00515:13130000
#0051b:00001313
#00612:13130000
#00618:00001313
#00712:13
#00718:0013
#00715:00130000
#0071b:00000013
#00818:00001313
#00812:13130000
#00915:13130000
#0091b:00001313
#01012:13
#01018:0013
#01015:00130000
#0101b:00000013
#00018:14
#00114:14
#00112:0014
#00214:14
#0031a:14
#00412:23130000
#00418:00001313
#0041b:23
#01218:0000001300000000
#01212:0000000013000033
#0121b:0000000000130000
#01215:00000013
#01210:41
#01315:0000001300000000
#0131b:0000000013000033
#01312:0000000000130000
#01318:00000013
#01418:0000001300000013
#01412:0013
#0141b:0000000000130000
#01415:00000013
#01515:13000013
#01518:0000001300000000
#0151b:0000000000000013
#01612:1300000000000013
#01618:0013000000000000
#01615:0000000000130000
#0161b:00000013
#01718:13
#01715:0000001300000000
#0171b:0000000000000013
#01812:00130013
#01818:0000001300000013
#01815:0013
#0181b:0000000000130000
#02012:13130000
#0201b:13
#02018:0000001300000000
#02015:0000000000000013
#02010:41
#02112:0013000000000000
#02118:0000000000130013
#02115:00000013
#02215:0000000000130013
#02218:00000013
#0231b:1313
#02315:0013000000130013
#02318:00130013
#02312:0000001300000000
#02418:0000001300000013
#02415:0013
#0241b:0000000000130000
#02412:00000013
#02515:0000000000130013
#02518:00000013
#0261b:13130013
#02612:0013001300000013
#02618:0013
#02615:0000000000130000
#03118:0000000000130000
#03115:00001313
#03112:1300000000000013
#03215:0013
#03218:0000000000130000
#0321b:00000013
#03318:0000001300130013
#03315:00001313
#03518:0000130000130013
#03515:0000002300001300
#03512:24
#0351a:24
#0381b:0000130000000013
#03815:0000001300000000
#03818:0000000000130000
#03812:00000013
#0381f:21
#03918:0000001300000013
#03915:0013
#03912:0000000000130000
#03910:41
#04015:1300000000130000
#04018:0000001300001300
#0401b:0000000000000013
#04115:1300000000000013
#0411b:0000000000131300
#04218:1300000000130013
#04215:0013000000001300
#0421b:00130000
#04212:0013
#04315:0000001300000000
#04312:0000000000130000
#04318:0000000013000013
#0441b:0013000000001300
#04418:0000001300000000
#04412:2323
#04415:0000230000000023
#04518:0000000000000013
#04618:0000001300000000
#04615:0000000000130000
#0461b:00000013
#04612:1300000000000013
#04715:0000001300000013
#04718:0013
#0471b:0000000000130000
#04912:0000000000131300
#04918:1300000000000013
#05015:13000013
#05012:00130000
#05018:0000000000130013
#05010:41
#05112:0000001300000013
#05118:0013
#05115:0000000000130000
#0511b:00000013
#05812:13
#05815:0013
#05810:41
#05918:13
#0591b:0000001300000000
#06412:14
#0641a:14
#0281b:13
#02818:0013
#0281f:11
#0291b:13
#02918:0013
#03012:13
#03015:0013
#04818:1300000000130000
#04815:0000001300001300
#04812:0000000000000013
#05415:0014000000140000
#05416:24141414
#05417:0000001400000014
#06315:13
#01915:13
#01918:0000001300000000
#03412:26
#05615:2300000000000023
#05618:00000023
#0561b:0000000000230000
#03712:0024
#0371a:0024
#03716:00240000
#03718:00000023
#0371b:00000000000000000000000000333333
#03614:24
#03612:0034343434343434
#01112:23000023
#01118:2300000000230000
#0111b:00230000
#01115:0000002300000000
#05312:00000024
#0531a:00000024
#0551b:0000000000000023
#05718:23
#06012:24
#06014:00240000
#06016:0024
#06018:00000024
#06112:24
#0611a:24
#06116:00000024
#06212:0023000023000000
#06215:0000000000230000
#0621b:2300006300002300
#06218:0000000000000023
#06219:00630000
#0621a:00000000006300000000000000000000
#02718:23
#0271b:0033333333330000
#02710:41
#05218:23363636363636363636363636363636
#06615:0000005300000000
#06618:0000005300000000
#03552:14
#0355a:14
#03752:0014
#0375a:0014
#00058:54
#00154:64
#00152:0054
#00254:64
#0035a:64
#01255:13000063
#01152:00000053
#01358:00000053
#01555:63
#01558:0000005300000000
#01758:53
#01755:0000006300000000
#0175b:0000000000000063
#02058:0000005300000000
#02055:0000000000000063
#02152:0063000000000000
#02158:0000000000000053
#02355:0000000000000063
#02458:0000000000000053
#03258:00130000
#0385b:0000000000000053
#04055:53
#04155:53
#04258:0000000000000053
#0435b:0013000000000000
#04352:0000000000130000
#04552:0013
#04652:5300000000000063
#05055:63
#05052:00530000
#05058:0000000000000053
#0515b:0013000000000000
#05355:19
#05352:00000014
#0535a:00000014
#05655:53
#05758:63
#05852:53
#05855:0053
#05958:63
#0595b:0000005300000000
#0615a:14
#06152:14
#06452:54
#0645a:64
#02758:63
#03355:0013000000000000
#04858:63
#04958:63
#05456:54545454
#05455:0024000000240000
#05457:0000002400000024
#06355:53
#0195b:00000013
#01958:0000005300000000
#01955:53
#03452:16
#000380:14
#0003a0:00000024
#001340:14
#001320:0034
#002340:34
#002320:00000024
#0033a0:14
#003380:0024
#011320:00000013
#012350:23
#012350:00000013
#012320:0000000000000033
#013320:23
#013380:00000013
#0133b0:0000000000000033
#0143b0:23
#015350:13
#015320:00230000
#015380:0000001300000000
#0153b0:0000000000230000
#017380:13
#0173b0:00230000
#017350:0000001300000000
#017320:0000000000230000
#0173b0:0000000000000013
#018380:0023000000000000
#019350:13
#019320:00230000
#019380:0000001300000000
#0193b0:00000023
#020380:0000001300000000
#0203b0:0000000000230000
#020350:0000000000000013
#021320:0033000000000000
#021350:0000002300000000
#021380:0000000000000013
#0223b0:0023
#023350:0000000000000013
#024320:00230000
#024380:0000000000000013
#0253b0:0000002300000000
#027380:13
#0273b0:0033333333332300
#028350:13
#028320:0033
#029350:33
#029320:0023
#030380:13
#0303b0:0033
#031380:33
#0313b0:0023
#032380:13230000
#032350:0000000000000013
#033350:0023000000000000
#036340:14
#036320:0034343434343434
#037320:24
#037380:00000013
#0373b0:00000000000000000000000000333333
#0383b0:23
#0383b0:0000000000000013
#039380:0023000000000000
#040350:13
#040320:00230000
#041350:13
#041320:0023
#042380:0000000000000013
#0433b0:0023000000000000
#044350:0000000000000013
#045320:0033333323000000
#046320:13
#046350:00230000
#046320:0000000000000013
#047350:0023000000000000
#048380:13
#0483b0:00230000
#049380:13
#0493b0:0023
#050350:1323
#050320:00330000
#050380:0000000000000013
#0513b0:0023000000000000
#052380:13363636363636363636363636363636
#053350:29
#054360:14545454
#054350:0054000000540000
#054370:0000005400000054
#055360:24
#056350:13
#056320:0023
#057380:13
#0573b0:00000023
#058320:13000023
#058350:0000003333000000
#059380:13000023
#0593b0:0000003300000000
#063350:13
#063320:00000023
#064320:14
#066350:0000002300000000
#0643a1:14
#066381:0000002300000000
#062990:00130000
#0629b0:0000002300000000
