This file was generated by Ched 2.7.0.0.
#TITLE ""
#ARTIST ""
#DESIGNER ""
#DIFFICULTY 0
#PLAYLEVEL
#SONGID ""
#WAVE ""
#WAVEOFFSET 0
#JACKET ""
#REQUEST "ticks_per_beat 480"
#00002: 4
#BPM01: 139
#00008: 01
#TIL00: ""
#VOLUME: ""
#HISPEED 00
#MEASUREHS 00
#01312:1414
#01318:00140000
#0141a:1414
#01414:00140000
#0261a:14
#02612:0014
#0041a:2414
#00514:1414
#00618:1414
#00712:1414
#0081a:1414
#00914:1414
#01018:1414
#01214:00140000
#0121a:2414
#01210:41
#0171a:1414
#01714:00140000
#01812:1414
#01818:00140000
#01618:00140000
#01612:1414
#02318:1414
#02314:00140014
#02418:14
#02512:14
#0251a:14
#0271a:14
#02710:41
#03214:1414
#03218:00140000
#0331a:1414
#03312:00140000
#03814:00140014
#0381a:2414
#0381f:21
#03918:1414
#03912:00140014
#03910:41
#0401a:14
#04014:00140000
#04018:0014
#04012:00000014
#04218:00140014
#04212:1414
#04314:1414
#0431a:00140014
#04412:14
#04418:00140000
#04414:0014
#0441a:00000014
#04614:00140014
#0461a:2414
#04718:1414
#04712:00140014
#0481a:14
#04814:00140000
#04818:0014
#04812:00000014
#05018:00140000
#05013:0014
#05019:00000014
#05012:14
#05010:41
#05114:14
#0511a:00140000
#05113:0014
#05119:00000014
#05818:1414
#05814:00140014
#05810:41
#0591a:1414
#05912:00140014
#0601a:14343434343434340034343434343434
#06018:0014
#0281f:11
#03412:24
#0341a:24
#05418:24
#05614:24
#03512:24
#0351a:24
#03712:0024
#0371a:0024
#03614:24
#03612:0034343434343434
#0621a:24
#06212:00240000
#06218:0024
#06214:00000024
#02010:41
#02652:0014
#0265a:14
#0275a:14
#03552:14
#0355a:14
#03752:0014
#0375a:0014
#05354:14
#0615a:14
#0605a:54
#06058:0054
#000380:14
#0013a0:24
#002340:14
#003320:24
#011340:14
#011320:0024
#015340:14
#015320:0024
#019380:14
#0193a0:0024
#020340:14
#021320:34
#022340:24
#028340:14
#029320:34
#029340:0024
#030380:14
#0313a0:34
#031380:0024
#036340:14
#036320:0034343434343434
#037320:24
#041380:14
#0413a0:0024
#045340:14
#045320:0024
#049380:14
#0493a0:0024
#052320:14
#053340:24
#054380:14
#0553a0:24
#056340:14
#056320:0034
#057340:34
#057320:0024
#0603a0:14343434343434340034343434343434
#060380:0034
#0613a0:24
#0633a0:14
#063380:00000024
#064340:14
#066320:0000002400000000
