This file was generated by Ched 2.7.0.0.
#TITLE ""
#ARTIST ""
#DESIGNER ""
#DIFFICULTY 0
#PLAYLEVEL
#SONGID ""
#WAVE ""
#WAVEOFFSET 0
#JACKET ""
#REQUEST "ticks_per_beat 480"
#00002: 4
#BPM01: 139
#00008: 01
#TIL00: ""
#VOLUME: ""
#HISPEED 00
#MEASUREHS 00
#0121a:1414140000001400
#01212:0000140014141400
#00217:1313000000000000
#0021b:0000000013130000
#00212:5313000000000000
#00216:0000000013130000
#00312:1313000000000000
#0031b:0000000013130000
#00317:1313000000000000
#00316:0000000013130000
#00412:1313000000000000
#00419:0000000013130000
#0041b:1313000000000000
#00414:0000000013130000
#00714:1300001300000000
#00712:00001300000000000000001300000000
#00719:00130000000000130000000000000000
#00717:00000013000000000000000000000000
#00713:00130000
#00718:00000000001300000000130000000000
#00715:00000000000000001300000000000013
#0071b:0000000000000013
#01416:00000013000013000000000000000000
#0141b:0000000013130000
#01415:0000000000000013
#01418:00000013
#01417:13
#01412:5313
#0151b:1313
#01518:00001300001300000000130000001300
#01515:00000000130013000000001300000013
#01512:13000000000000001300000000130000
#0161b:1313
#01617:00000000000000000000001300000000
#01612:00001313000000000000001300000000
#01616:0000000013000013
#01618:0000001300000000
#01712:13000023
#01716:00000013000000000000000000000000
#01717:1300001313002300
#0171b:00000013000000000000000000000000
#01718:00000000000000000000000000530000
#01719:0000000000000053
#0171a:00000000000000000000000000000053
#02218:1616
#02215:2300130013000013
#02212:0000001300001300
#02318:1600001300000013
#02312:1300130000130000
#02315:00000000000000130000000013000000
#0231b:00131313
#0421b:13001313
#04217:00000013000000000000000000000000
#04218:0000000000130000
#04215:00000013
#04212:00000013000000001300000000001300
#04216:0000001300000000
#0651b:0013000000000000
#06512:00130000
#06518:0000001300000013
#06515:00000000000000130013000000000013
#0671b:13130000
#06712:0013000000000000
#06715:0000001300000013
#06718:00000000000000130013000000000013
#0051b:13130023
#00519:0013001300000000
#00512:13000000000000130000230000000000
#00514:00001300001300000000000000000000
#00517:0023
#00615:13
#00618:00001300000000000000001300000000
#00612:00000013000000000000130000000000
#00619:00130000
#00613:00000000001300000000000000000000
#0061a:0000001300000000
#00614:00000000000000130000000000000000
#0061b:13000000000000001300000000000013
#00616:0000000000000013
#00815:00001300000000130000130000000013
#00818:26000013000013002600001300001300
#00812:00260026
#0091b:1300000000130000
#00912:00000015000015001500000000000000
#00918:00000033000000000000000013000000
#00915:0000000000000013
#01017:13000023
#01012:13000023
#01016:00231300
#0101b:00231300
#01010:41
#01117:13
#01112:1300000000130000
#01115:00000000000000001300000000130013
#01118:00000000000000000013000000000000
#0111b:0000230000001313
#01116:00230000
#0181b:5300000000130000
#01819:00000013
#01816:13000000000000000000001300000000
#01812:00000000000000001300000000000013
#01814:00000000000000000000000000130000
#01817:00000013000013000000000000001300
#01810:41
#01912:00000013000013001300000000000000
#01917:00000033000000001300000000000000
#01918:00000000000000000000000000130013
#01915:0000000000001313
#0191b:13
#02012:13000000000000000000001300000000
#02016:00000013000000001300000000000000
#0201b:00000013000000001300000000001300
#02017:00000000000013000000001300000000
#02112:1313001313000023
#02117:13000013000000000000000000000000
#0211b:0000000000230000
#02118:00000023
#0251b:1300130000130000
#02515:0000001300000013
#02518:00000000000000130000000013000000
#02512:16131313
#02615:1300001300001300
#02612:0000130013000013
#02618:16131600
#0261b:00000013
#02718:1300000013000013
#0271b:0013000000001300
#02715:13130013
#02712:0000001300130000
#03012:0000000013130000
#03018:1300000000000013
#03015:00000013000000000000000013000000
#03017:0000001300000000
#0301b:00001313
#03010:41
#0311b:13001300000000000000131300000000
#03116:00130000
#0311a:00000000001300000000000000000000
#03112:13000000000000001300000000130000
#03114:0000001300000000
#03118:00000000000000130000000000001300
#03115:00000000000000000000000000000013
#0341b:0013000013130000
#03419:00000013
#03416:00000000000000000000001300000000
#03412:00000013000000001300000000000013
#03414:00000000000000000000000000130000
#03418:0000001300000000
#03417:0000000000000013
#03415:13
#03812:2300001300000000
#03818:00000013
#0381b:0000000000000013
#03815:00000013000000000000000000000000
#0381f:11
#03915:00130000
#03912:0000001300000000
#04118:00000000000000130000000013001300
#04112:13000000000000001300000000130000
#04115:00000000000000000000000000000013
#04117:53130000000000000000000000000000
#04114:0013001300000000
#04119:00000013000000000000000000000000
#04116:0000130000130000
#0411b:00000000001300000000000000000000
#0461b:5300001313130000
#04615:0000000000000013
#04618:00000013
#04612:00002c1313000000
#0461f:00210000
#0471b:13001300000000000000131300000000
#04716:00130000
#0471a:00000000001300000000000000000000
#04712:13001300000000001300000000130000
#04714:0000001300000000
#04718:00000000000000130000000000001300
#04715:00000000000000000000000000000013
#04710:41
#05412:1616
#05418:2600130026000013
#05415:0000001300001300
#0481b:13000000000000000000131300000000
#04817:00003313000000001300000000000000
#04812:00001313000000001300000000000000
#04816:00000000000000000000331300000000
#04915:00130000000013000000000013001300
#04918:00001300001300000000000000130013
#0491b:1313
#04912:00000013000000000000000000000000
#0501b:00001313000000000000000013000000
#05012:13000000000000000000130000000013
#05015:00000000000000000000000000130000
#05018:0000000000000013
#05016:00003313000000000000000000000000
#05017:0000000000130000
#05115:0000000000000013
#05118:00000000000000000000000000000013
#0511b:13000013
#05117:00000013000000000000000000000000
#05112:00000013000000000000000013000000
#05315:00003333133333000000000013000000
#05318:00003333133333000000000000001300
#05312:1300000000130000
#0531b:23000013
#0551b:0000130000130000
#05515:0000001300000013
#05518:26000000000000130000000013000000
#05512:16131313
#05712:2600130000130000
#05718:1600001300000013
#05715:00000000000000130000000013000000
#0571b:00131313
#05710:41
#05812:1600001316001300
#05815:0000130000000013
#0581b:0000130000000013
#05818:2600001326001300
#05215:00001300000000000013000000000000
#05218:00000013000000000000130000131300
#05212:13000000000013000000001300000000
#0521b:0013
#06116:0000000000141414
#06114:00140000
#06118:00140000
#0611a:24
#06112:24
#06412:12
#0641c:12
#0661b:13130000
#06618:0013001300000000
#06612:00130000
#06615:00000000000000130000000000000000
#0011b:00000013
#00116:00000013
#00115:00000000000000000000000000530000
#00114:0000000000000053
#00113:00000000000000000000000000000053
#02412:1616
#02418:1300130013000013
#0241b:0000001300001300
#02918:00140023
#02914:00140000
#02912:24000000000000000000000000000023
#0291a:24
#02915:00000000000000000000000000230000
#0291b:0000000000000023
#0321b:13000000000013000000001300000000
#03215:00001313000000000000000000000000
#03212:0000000013000013
#03216:00000000000000000000001300000000
#03217:0013
#0331b:00001300000000001300000000000023
#03315:1300001300002300
#03318:00000000001300000000000000230000
#03312:00000013000000000000000000002300
#03512:0013000013000000
#03515:00000000000013000000000000130013
#03518:1300000000001313
#0351b:00000013000000001300000000000000
#0361b:13000000000000000000331300000000
#03617:00003313000000001300000000000000
#03612:00000013000000001300000000001300
#03616:00000000000013000000001300000000
#0371b:1313001313000000
#03716:13000013000000000000000000000000
#03715:0000000000260000
#03714:00000023
#03719:00000023
#03713:0000000000000023
#0371a:0000000000000023
#03710:41
#04312:13001313
#04316:00000013000000000000000000000000
#04315:0000000000130000
#04318:00000013
#0431b:00000013000000001300000000001300
#04317:1300001300000000
#05618:1600001316001300
#05615:0000130000000013
#05612:26002613
#0561b:00130000
#05915:13231313
#05912:0013000000130000
#05918:2300130023000013
#0591b:0000001300001300
#0681b:00000000130000001300000000000013
#06815:0013000000130013
#06818:00000000000013000000000000130000
#06812:23232323
#06212:14
#0621a:14
#06219:0014
#06213:0014
#06314:14
#06318:14
#0281a:24
#02818:0024
#02814:0024
#02812:24
#0131a:2424
#01318:0024002400000000
#01316:00240023
#01312:0024
#0131b:00000023
#01315:00000000000000000000000000530000
#01314:0000000000000053
#01313:00000000000000000000000000000053
#06012:24
#06014:0024
#06018:0024
#0601a:24
#04012:5353
#04013:00530000000000000053000000000000
#04014:0053000000530000
#04015:00000053000000000000005300000000
#04016:00530053
#0401b:00530053
#0401a:00000000005300000000000000530000
#04019:0000005300000053
#04018:00000000000000530000000000000053
#04017:0053
#04412:53535353
#04413:0053000000000000005300000000000000530000000000530000000000000000
#04414:00530000005300000053005300000000
#04415:0000005300000000000000530000000000000053005300000000000000000000
#04416:0053005300530000
#0441b:0053005300005300
#0441a:0000000000530000000000000053000000000000000000000053000000000053
#04419:00000053000000530000000000530053
#04418:0000000000000053000000000000005300000000000000000000005300530000
#04417:0000530053000053
#04512:53535300000000005353530000000000
#04513:0053005300000000000000000000000000530053000000000000000000000000
#0451b:53000000000053535300000000005353
#0451a:0000000000000000000000000053005300000000000000000000000000530053
#04515:00000000535353000000000053535300
#04514:0000000000000000005300530000000000000000000000000053005300000000
#04518:00005353530000000000535353000000
#04519:0000000000530053000000000000000000000000005300530000000000000000
#0105b:00136300
#01057:53000013
#01052:53000013
#01056:00136300
#0285a:14
#02858:0014
#02854:0014
#02852:14
#0135a:0014
#01352:0014
#0165b:5353
#01657:00000000000000000000005300000000
#01652:00000063000000000000000000000000
#01752:6313
#01757:0013
#01756:00000023000000000000000000000000
#02952:5414
#0295a:5414
#02958:00540000
#02954:00540000
#0425b:53
#04257:00000053000000000000000000000000
#04652:001c0000
#00552:00000013
#0055b:00000013
#00655:53
#0065b:0053
#00658:00000000000000000000006300000000
#00755:0053
#00752:00000000000000000000006300000000
#0095b:63
#00957:0013
#00952:0015
#01157:53
#01152:53
#0115b:00130000
#01156:00130000
#0125a:00540000
#01252:00000064
#02052:63000000000000000000005300000000
#02056:00000063000000005300000000000000
#01957:0063
#0195b:53
#01952:0013
#02157:00000063000000000000000000000000
#0215b:0013
#02152:0013
#02258:4646
#02358:46
#0275b:0023000000000000
#02758:53
#02755:00630000
#02752:0000002300000000
#01457:53
#03058:63
#03055:00000053000000000000000000000000
#04752:0063
#04852:00000063000000006300000000001300
#0485b:53000000000013000000005300000000
#04857:00000053000000000000000000001300
#04856:00000000000013000000006300000000
#05052:6313
#05056:00000063000000000000000000000000
#0505b:00000053000000000000000000000000
#05057:0013
#04952:00000063000000001300000000000000
#04955:0000005300000000
#0495b:0013
#0515b:5313
#05157:00000053000000000000000000000000
#05152:00000063000000000000000000000000
#05156:0013
#05258:00000053000000000000000000000000
#05252:00000000000000000000005300000000
#0345b:0013
#03455:53
#03452:00000023000000001300000000000000
#01856:63
#01852:0013
#02452:3636
#02552:36
#02658:4646
#03152:0053
#0325b:53000000000000000000005300000000
#03255:00000053000000000000000000000000
#03257:0053
#03355:5300005300000000
#03352:00000063000000001300000000000000
#0335b:0013
#03552:0013
#03558:63
#0355b:00000023000000001300000000000000
#0365b:53000000000000000000006300000000
#03657:00000053000000006300000000000000
#03756:00000053000000000000000000000000
#03752:0013
#0375b:0013
#04152:0053
#04156:0000000000230000
#04352:63
#04356:00000063000000000000000000000000
#05355:00230000
#05358:00230000
#05352:53
#0535b:53
#05452:1616
#05458:1616
#05552:16
#05558:16
#05658:1616
#05652:1616
#05758:16
#05752:16
#05955:63130000
#05952:0023000000000000
#05958:13531300
#0595b:0000002300000000
#06154:00640000
#06158:00640000
#0615a:6414
#06152:6414
#06052:14
#06054:0014
#06058:0014
#0605a:14
#05852:1616
#05858:1616
#0645c:22
#06452:22
#06252:14
#06253:0014
#06259:0014
#0625a:14
#06358:54
#06354:54
#03852:13
#03955:00000013
#005370:0000000013230000
#005321:0000000000132300
#006351:13
#006321:0023000000000000
#0063b1:0013
#006381:0000000000230000
#006381:00000000000000000000001300000000
#0063b1:0000000000000023
#007351:0013
#007321:0000000000230000
#007321:00000000000000000000001300000000
#007351:0000000000000023
#0093b1:13
#009381:00000033000000000000000000000000
#009371:0000003323000000
#010371:13
#0103b1:00230000
#010320:13
#010360:00230000
#010360:0013
#010320:00000023
#0103b1:0013
#010371:00000023
#011371:13
#0113b1:00230000
#011320:13
#011360:00230000
#0123a0:00140000
#012360:0024
#012320:00000014
#013360:24
#014370:13
#0143b0:00000033000023000000000000000000
#0163b0:13
#016380:0023000000000000
#016320:00000013000000000000000000000000
#016350:0000002300000000
#0163b0:0000000013000023
#016370:00000000000000000000003300000000
#017320:1300003323000000
#017360:00000033000000000000000000000000
#018360:13
#018320:00000033000023000000000000000000
#0193b0:13
#019370:00000033000023000000000000000000
#019370:0013
#0193b0:00000023
#020320:1300002300000000
#020360:00000033000000000000000000000000
#020360:0000000013000023
#020320:00000000000000000000003300000000
#021370:00000013000000000000000000000000
#0213b0:0000003323000000
#027380:13230000
#0273b0:0053000000000000
#027351:00132300
#027321:0000005300000000
#029321:1424
#029341:00340000
#0293a0:1424
#029380:00340000
#030380:13
#0303b0:00000023000000000000000000000000
#030351:00000013000000000000000000000000
#030321:0000002300000000
#031321:0013
#031361:00000000000000000000332300000000
#0323b1:13
#032381:0023000000000000
#032351:00000013000000000000000000000000
#032321:0000002300000000
#032371:0000000013000023
#0323b1:00000000000000000000003300000000
#033351:13
#033321:0023000000000000
#033321:00000013000000000000000000000000
#033351:00000000002300000000000000000000
#033351:0000001300000000
#033321:0023
#034351:13
#034321:0023000000000000
#034321:00000013000000000000000000000000
#034351:0000002300000000
#035381:13
#0353b1:0023000000000000
#0353b1:00000013000000000000000000000000
#035381:0000002300000000
#0363b1:1300002300000000
#036371:00003333000000000000000000000000
#036371:0000000013000023
#0363b1:00000000000000000000333300000000
#037361:00000013000000000000000000000000
#037321:0000003323000000
#0383b1:1300003323000000
#038381:00000033000000000000000000000000
#038320:0000000013000033
#038350:00000033
#039350:23
#039381:1300003300000000
#0393b1:00332300
#039350:00000000000000000000000000000000000000000000000000000000000000001300005300005300000053000053000023000000000000000000000000000000
#039340:00000000000000000000000000000000000000000000000000000000000000000053000000530053005300530000005300000000000000000000000000000000
#039360:0000000000000000000000000000000000535300530053530000000000000000
#039381:00000013
#040381:23
#041321:00001323
#041361:0000000000530000
#0423b1:1300002300000000
#042371:00000033000000000000000000000000
#043321:1300002300000000
#043361:00000033000000000000000000000000
#046321:132c0000
#047321:0013
#047361:00000000000000000000332300000000
#0483b1:1300002300000000
#048371:00003333000000000000000000000000
#048320:00000013000000000000000000000000
#048360:0000002300000000
#048320:0000000013000023
#048360:00000000000000000000333300000000
#0483b1:00000000000000000000001300000000
#048371:0000000000000023
#049321:00000013000000000000000000000000
#049351:00000000002300000000000000000000
#049351:0000001300000000
#049321:0023
#050321:1300003323000000
#050361:00003333000000000000000000000000
#0503b0:00000013000000000000000000000000
#050370:0000003323000000
#0513b0:1300003323000000
#051370:00000033000000000000000000000000
#051321:00000013000000000000000000000000
#051361:0000003323000000
#052381:00000013000000000000000000000000
#0523b1:0000002300000000
#052321:00000000000000000000001300000000
#052351:00000000000000000000000000332300
#053321:1323
#053351:00003333333333000000000000000000
#0533b0:1323
#053380:00003333333333000000000000000000
#059350:13230000
#059320:0053000000000000
#059381:00132300
#0593b1:0000005300000000
#0613a1:1424
#061381:00340000
#061320:1424
#061340:00340000
#063380:14
#0643c0:52
#064380:00000000000000000000000036363636
#065380:26
#063341:14
#064321:52000000000000000000000036363636
#065321:26
#0653b1:0000000000132300
#065320:0000000000001323
#0663b0:0000000013230000
#066321:0000000000132300
#066380:0000000000001323
#066351:0000000000000013
#067351:23
#067321:0000000000132300
#0673b0:0000000000001323
#001960:00000013
#002920:23
#013960:00000013
#014920:23
#017970:00000013
#0189b0:23
#040920:13
#040950:00000053000000000000000000000000
#040960:00230000
#0409b1:00130000
#040981:00000000000000530000000000000000
#040971:0023
#040920:0013
#040950:00000000000000000000005300000000
#040960:00000023
#0409b1:00000013
#040981:00000000000000000000000000000053
#041971:23
#044921:13
#044961:0023000000000000
#0449b0:0013000000000000
#044970:00230000
#044921:00130000
#044961:0000002300000000
#0449b0:0000001300000000
#044970:0023
#044921:00001323
#044961:0000000000530000
#0449b0:00000013
#044970:0000000000000053
#0459b0:23
#045921:13532300000000000000000000000000
#045931:0053005300000000000000000000000000000000000000000000000000000000
#045980:00001353230000000000000000000000
#045990:0000000000530053000000000000000000000000000000000000000000000000
#045951:00000000135323000000000000000000
#045941:0000000000000000005300530000000000000000000000000000000000000000
#0459b0:00000000000013532300000000000000
#0459a0:0000000000000000000000000053005300000000000000000000000000000000
#045921:00000000000000001353230000000000
#045931:0000000000000000000000000000000000530053000000000000000000000000
#045980:00000000000000000000135323000000
#045990:0000000000000000000000000000000000000000005300530000000000000000
#045951:00000000000000000000000013532300
#045941:0000000000000000000000000000000000000000000000000053005300000000
#0459b0:00000000000000000000000000001353
#0459a0:0000000000000000000000000000000000000000000000000000000000530053
#0469b0:23
