This file was generated by Ched 2.7.0.0.
#TITLE ""
#ARTIST ""
#DESIGNER ""
#DIFFICULTY 0
#PLAYLEVEL
#SONGID ""
#WAVE ""
#WAVEOFFSET 0
#JACKET ""
#REQUEST "ticks_per_beat 480"
#00002: 4
#BPM01: 139
#00008: 01
#TIL00: ""
#VOLUME: ""
#HISPEED 00
#MEASUREHS 00
#0061b:13
#0061a:00130000
#00614:0013000000000000
#00613:0000001300000000
#00619:0013
#00612:0000000000130000
#00618:00000013
#01214:14140000
#0121a:14140000
#01218:00001414
#01212:00001414
#00215:1313000000000000
#00218:0000000013130000
#00312:1313000000000000
#0031b:0000000013130000
#00415:1313000000000000
#00418:0000000013130000
#00515:13
#00512:00003300333333330000000023000000
#00719:0013000000000000
#0071a:0000001300000000
#0071b:0000000000130000
#00715:00000013
#00714:0013
#00713:00130000
#00712:13
#00815:0013000000000000
#00814:0000001300000000
#00813:0000000000130000
#00812:0000000000000013
#00818:23
#00819:00230000
#0081a:0023
#0081b:00000023
#00918:13
#00912:00000014
#0091a:00000014
#0091b:00000033000033000000000000000000
#01114:00001414
#01118:0000260000140000
#0141b:0013
#01415:1300000000130000
#01412:00000033000000000000000000001300
#01418:00000013
#0151b:1313000000000000
#01515:0000130000330000
#01518:0000001300000000
#01512:0013
#0161b:13
#01618:00000013000000000000000000000000
#01612:0013
#01615:00000000000000000000001300000000
#01718:1300000000000023
#0171b:00000013000000000000000000000000
#01715:00000023
#01815:00000033000000000000130000000000
#01812:1300000000000013
#01818:00000013
#0181b:0013
#01810:41
#02012:13
#02015:00000013000000000000000000000000
#0201b:0013
#02018:00000000000000000000001300000000
#02115:13
#02112:00000013000000000000000023000000
#02118:0000000000130000
#0211b:0000000000000023
#0191b:13
#01915:0013
#01918:00000033000000000000000013001300
#02214:14
#02213:0014
#02218:0000001300000013
#02312:1400000000000013
#02318:00131300
#02315:0000000000130000
#0231b:00000013
#02418:14
#0241a:0014
#02415:0000001300000013
#02518:1400000000130000
#02515:00131300
#02512:00000013
#0251b:0000000000000013
#02614:14
#02612:0014
#02618:0000001300001300
#02615:0000000000000013
#0271a:14
#02716:00140000
#02712:0014
#02718:0000000000130013
#02715:00000013
#03012:0013
#03018:1300000000130000
#0301b:00000033000000000000000000001300
#03015:00000013
#03010:41
#03112:1313000000000000
#03118:0000130000330000
#03115:0000001300000000
#0311b:0013
#03215:13
#03212:00000013000000000000000000000000
#03218:0013
#0321b:00000000000000000000001300000000
#03312:13
#03315:00000013000000000000000000002300
#03318:00000023
#03412:0013
#03418:1300000000130000
#0341b:00000033000000000000000000001300
#03415:00000013
#03618:13
#0361b:00000013000000000000000000000000
#03615:0013
#03612:00000000000000000000001300000000
#03515:1300000000001313
#03518:0013
#03512:00000033000000000000000000000000
#03718:13
#0371b:00000013000000000000000000000000
#03715:0000000000230000
#03710:41
#0381b:0013
#03812:00000013
#03818:0000000000000013
#0381f:11
#03912:13
#0391b:00130000
#03915:0000001300000000
#03918:0013
#04115:00000013
#04118:00000053000000000000000000001300
#0411b:1300005300000000
#0411a:00530000005300530000000000000000
#04119:0053530053000000
#04116:53
#04212:1300000000130000
#04215:00000013000000000000000000001300
#0421b:0013
#04218:00000013
#0431b:1300000000130000
#04318:00000013000000000000000000000000
#04312:0013
#04618:0000000013130000
#04612:00230013
#0461b:5300230000000013
#0461f:00210000
#04715:1313000000000000
#04718:0000130000330000
#04712:0000001300000000
#0471b:0013
#04710:41
#04815:13
#04812:00000013000000000000000000000000
#04818:0013
#0481b:00000000000000000000001300000000
#04918:00000013
#04915:1300000000000013
#04912:00000013000000000000000000000000
#0501b:13
#05018:00000013000000000000130000001300
#05012:0013
#05015:00000013
#05112:13
#05115:00000013000000000000000000001300
#05118:00000013
#05218:13
#0521b:00000013000000000000000000000000
#05215:0013
#05212:00000000000000000000001300000000
#05312:13000013
#0531b:2300000000130000
#05318:00000033000033000000000000001300
#05315:00000033000033000000000000000000
#05418:0000131300001313
#05414:24
#05413:0024
#05518:00131300
#05515:0000001300000013
#05512:2400000000130000
#0551b:00000013
#05615:0000131300001313
#05618:24
#0561a:0024
#05715:00131300
#05718:2400001300000013
#0571b:0000000000130000
#05712:00000013
#05710:41
#05818:0000131300001313
#05814:24
#05813:0024
#0651b:0013000000130000
#06512:00130000
#06518:0000001300001300
#06515:1300000013000013
#06612:1313000000130000
#0661b:00130000
#06615:0000001300001300
#06618:0000000013000013
#0671b:1313000000130000
#06712:00130013
#06718:0000001300000013
#06715:0013
#06815:13
#0681b:00001300000000000000000000000053
#06818:00000053
#06819:00000000000000000000000000530000
#0681a:0000000000000053
#05915:0000000000130013
#05918:00000013
#05912:24
#05916:00240000
#0591a:0024
#06212:1414
#0621a:1414
#06314:14
#06318:14
#04012:1300005300005300
#04013:00530000005300530000005300530000
#04014:0053530053530053
#04015:00000053000000000053000000000053
#04412:1353
#04413:00530000000000530053000000000053
#04414:0053005300530053
#04415:00000053005300000000005300530000
#04416:00530053
#0451b:1353
#04512:53
#0451a:00530000000000530053000000000053
#04519:0053005300530053
#04518:00000053005300000000005300530000
#04517:00530053
#01018:00260000
#01012:00000026
#01010:41
#02812:24
#0281a:0024
#02814:0024
#01318:24242400
#01314:0024002400000000
#02914:24
#02918:24000023
#02915:0000000000000023
#0601a:24
#06012:0024
#06018:0024
#06118:24
#06114:24
#01058:00160000
#01052:00000016
#01158:00160000
#02852:14
#0285a:0014
#02854:0014
#00555:53
#00552:00000013
#00958:53
#0095b:0013
#01552:0053
#0165b:53
#01658:00000053000000000000000000000000
#01652:0063
#01655:00000000000000000000006300000000
#01758:6313
#0175b:00000063000000000000000000000000
#02052:63
#02055:00000063000000000000000000000000
#0205b:0053
#02058:00000000000000000000005300000000
#02155:5313
#02152:00000053000000000000000000000000
#01852:63
#0185b:0013
#0195b:53
#01955:0013
#02254:14
#02253:0014
#02352:14
#02458:14
#0245a:0014
#02558:14
#02654:14
#02652:0014
#0275a:14
#02756:00140000
#02752:0014
#02954:54
#02958:54
#02952:0014
#0295a:0014
#0315b:0063
#03255:53
#03252:00000053000000000000000000000000
#03258:0063
#0325b:00000000000000000000006300000000
#03352:6313
#03355:00000063000000000000000000000000
#03658:63
#0365b:00000063000000000000000000000000
#03655:0053
#03652:00000000000000000000005300000000
#03458:63
#03452:0013
#03555:53
#03558:0013
#03758:6313
#0375b:00000063000000000000000000000000
#03958:0053
#0395b:00000013
#04252:63
#04255:00000063000000000000000000000000
#0435b:5300000000530000
#04358:00000053000000000000000000000000
#04652:00130000
#0465b:00130000
#04855:5300001300000000
#04852:00000053000000000000000000000000
#04858:0000000063000013
#0485b:00000000000000000000006300000000
#0505b:53
#05058:00000053000000000000000000000000
#05152:6313
#05155:00000063000000000000000000000000
#05258:63
#0525b:00000063000000000000000000000000
#05255:0053
#05252:00000000000000000000005300000000
#05352:63
#0535b:53
#05454:14
#05453:0014
#05552:14
#05658:14
#0565a:0014
#05758:14
#05854:14
#05853:0014
#05952:14
#05956:00140000
#0595a:0014
#0685b:0053000000000000
#0475b:0053
#04955:5313
#04952:00000053000000000000000000000000
#0605a:14
#06052:0014
#06058:0014
#06158:64
#06154:64
#0615a:0014
#06152:0014
#06252:1414
#0625a:1414
#06358:54
#06354:54
#01455:53
#03058:53
#03852:13
#005350:13
#005320:00003300333333333300330023000000
#009380:13
#0093b0:00000033000033002300000000000000
#010380:16260000
#010320:00001626
#011380:16260000
#014350:13
#014320:00000033000023000000000000000000
#015320:0013
#015350:00000000000000000000333300333333
#016350:23
#0163b1:1300002300000000
#016381:00000033000000000000000000000000
#016321:0000000013000023
#016351:00000000000000000000003300000000
#017381:1300003323000000
#0173b1:00000033000000000000000000000000
#018321:13
#018351:00000033000023000000000000000000
#0193b1:13
#019381:00000033000023000000000000000000
#020321:1300002300000000
#020351:00000033000000000000000000000000
#0203b1:0000000013000023
#020381:00000000000000000000003300000000
#021351:1300003323000000
#021321:00000033000000000000000000000000
#029341:14
#029321:0024
#029380:14
#0293a0:0024
#030380:13
#0303b0:00000033000023000000000000000000
#0313b0:0013
#031380:00000000000000000000333300333333
#032380:23
#032351:1300002300000000
#032321:00000033000000000000000000000000
#032381:0000000013000023
#0323b1:00000000000000000000003300000000
#033321:1300003323000000
#033351:00000033000000000000000000000000
#034381:13
#0343b1:00000033000023000000000000000000
#035351:13
#035321:00000033000023000000000000000000
#036381:1300002300000000
#0363b1:00000033000000000000000000000000
#036351:0000000013000023
#036321:00000000000000000000003300000000
#037381:1300003323000000
#0373b1:00000033000000000000000000000000
#037351:0000000000130000
#037341:00000033
#037331:0000000000000033
#038321:23
#039381:0013
#0393b1:00000023
#042321:1300002300000000
#042351:00000033000000000000000000000000
#0433b1:1300002300000000
#043381:00000033000000000000000000000000
#0433b1:0000000000130000
#043381:0000000000000023
#0473b1:0013
#047381:00000000000000000000333300333333
#048381:23
#048350:1300002300000000
#048320:00000033000000000000000000000000
#048380:0000000013000023
#0483b0:00000000000000000000003300000000
#049350:1300003323000000
#049320:00000033000000000000000000000000
#0503b0:1300002300000000
#050380:00000033000000000000000000000000
#051320:1300003323000000
#051350:00000033000000000000000000000000
#052380:1300002300000000
#0523b0:00000033000000000000000000000000
#052350:0000000013000023
#052320:00000000000000000000003300000000
#0533b0:13
#053380:00000033000033002300000000000000
#053321:13
#053351:00000033000033002300000000000000
#061381:14
#0613a1:0024
#061340:14
#061320:0024
#063380:14
#0643a0:00000024
#063341:14
#064321:00000024
#0683b1:0013000000000000
#068381:00000023
#040920:1300005300005300
#040950:00000053000000000053000000000000
#041960:23
#0419b1:1300005300000000
#041981:00000053000000000000000000000000
#041991:0023
#044921:1353
#044961:00530053
#045921:23
#0459b0:1353
#045970:00530053
#0469b0:23
#068980:00000013
#0689b0:00000000000000000000000000000023
