This file was generated by Ched 2.7.0.0.
#TITLE ""
#ARTIST ""
#DESIGNER ""
#DIFFICULTY 0
#PLAYLEVEL
#SONGID ""
#WAVE ""
#WAVEOFFSET 0
#JACKET ""
#REQUEST "ticks_per_beat 480"
#00002: 4
#BPM01: 139
#00008: 01
#TIL00: "0'1:10000, 0'1120:0.5, 0'1438:10000, 1'320:1, 0'1350:16, 64'1440:32, 64'1443:0.01, 64'1560:32, 64'1563:0.01, 64'1680:32, 64'1683:0.01, 64'1800:32, 64'1803:0.01, 65'0:1"
#VOLUME: ""
#HISPEED 00
#MEASUREHS 00
#0121a:1414000000000000
#01212:1300000014141800
#01214:0013000000000000
#01216:00180000
#0121b:0013
#01219:0000000000130000
#0021b:0000000013130000
#00216:1414000014140000
#00212:1313000000000000
#00712:13130000130000001300000000000000
#00718:00001313000000130000000000001300
#0071b:00000000001300000000130000000000
#00715:00000000000013000000000000000013
#00716:00000000000000000000001300000000
#0141b:0000000013130000
#01417:00000013000000000000000000001300
#01419:00000013
#01416:1300001300000000
#01412:0000000013000013
#01414:0000000000130000
#01415:00000013
#01517:00000000130013000000131300000000
#01515:00000000001300000000000000130013
#01518:0000000000000013
#01516:1313
#0161b:13001313000000001300000000000000
#01617:00000000000013000000001300000000
#01616:00000013000000001300000000131300
#01612:13000000000000000000131300000000
#01712:13000000000000001300000000000023
#01717:1300001300000000
#0171b:00001313000000000000000023000000
#01716:00000013000000000000000000000000
#01718:00000000000000000000000000230000
#01715:0000000000000023
#02215:19
#02212:2300140019000014
#02217:0000130000000013
#02216:0000001300001300
#0221a:0000001400001400
#0221b:0013
#0421b:13000000000000000000000000000053000000000000000000000000000000001300000000000000000000001300000000000000000000000000000013000000
#04216:0000000000141414
#04212:00000013000000001300000000130000
#0421a:00530000000000000000000000005300000000000000000000000000000000000000000000000000000000000000000000000000000000000000000000000000
#04219:00005300000000000000000000530000000000000000000000000000000000000000000000000000000000000000000000000000000000000000000000000000
#04218:00000053000000000000000053000000000000000000000000000000000000000000000000000000000000000000000000000000000000000000000000000000
#04213:00000000000000000000000000530000000000000000000000000000000000000000000000000000000000000000000000000000000000000000000000000000
#04214:0000000000000053000000000000000000000000000000000000000000000000
#04215:00000000000000000000000000000053000000000000000000000000000000000000000000000000000000000000000000000000000000000000000000000000
#0651b:0000131300000000
#06515:00000000000000130013000000000013
#06518:5600000013000013
#06512:5600130000130000
#06715:00001300000000130000000000000013
#06712:13130013
#06718:0013001300000013
#0671b:13130000
#00512:1300135353000000
#00515:00130000005300530000000000000013
#00518:0013000000000013
#0051b:00000013000000000000000023000000
#00517:0023
#00516:0000000000230000
#00618:13000000000013000000000000000013
#00615:00001313000000130000000000001300
#0061b:00131300
#00612:00000000001300000000130000000000
#00617:00000000000000000000001300000000
#00815:0016000000000000
#00814:0000001800000000
#00813:00000000001a0000
#00812:000026001300261c
#0081b:00130013
#00818:2626
#0091b:0000000000130000
#00912:2400000000001400000000000054000000000000000000000000000013000000
#00916:0054000000000054000000005400000000000000130000000000000000000000
#00914:00000000000000000000000000540000000000000000000000540000000000000000000000000000000000000000000013000000000000000000000000000000
#00919:00000013
#00917:0000000000000013
#0091a:1400000000000000000000000054000000000000000000000000000000000000
#00918:00540000000000000000000000000000000000000000000000540000000000000000000000000000000000000000000000000000000000000000000000000000
#01112:14241300
#0111b:0013
#01118:00001300000000000013000013001300
#01115:00001300000000000000130000130013
#0111a:14240000
#0231b:00000000130000000013000000000000
#02312:1300131300001400
#02318:00000000000000130000130000000000
#02315:1913
#02317:00000013
#02316:0000000000000013
#0231a:0000000000000014
#02612:1300130016000013
#02615:1900001300001300
#0261b:0000130000000013
#02618:0000001316001300
#02716:0000000000140000
#02712:16161613
#02715:00000000000000000000000000130000
#02718:1600160016000013
#0271b:00000000000000000000000000000013
#03116:00130000
#0311b:13000000001300000000131300000000
#03114:0000001300000000
#03112:1313
#03115:00000000000000000000000000130013
#03118:0000000000000013
#03119:00000000000000130000000000000000
#0321b:1300001313000013
#03217:00001313000000000000000000000000
#03212:13000013000000001300001300000000
#03412:13000000000000000000131300000013
#0341b:00001313000000000000000013000000
#03415:00000000000000000000000000130000
#03418:0000000000000013
#03417:0000000000000000001300000000000000000000000000000000000000000000
#03518:00000000000000000000000000130000
#03515:0000000000000013
#03512:00001313000000000000000000000013
#0351b:13000013
#03516:0000000000000000001300000000000000000000000000000000000000000000
#03016:00001313001414000000140014001400
#03017:13
#0301b:00001313
#03012:0000000013130013
#03010:41
#03316:00001313000000000000000000000000
#03317:13000000001313000000000000000000
#03312:13001523
#03315:00000000000000000000000000230000
#03318:0000000000000023
#0331b:00000000000000000000000000000023
#03612:00001313000000000000000000000000
#0361b:1300001313000000
#03617:00000000000000000000131300000000
#03616:00000000000000001300000000001313
#0371b:13
#03712:00001313000000000000000000000000
#03716:0000000000000000001400000000000000000000000000000000000026000000
#03715:0000000000130000
#0371a:00000013
#03713:0000000000000013
#03718:0000000000260000
#03714:00000026
#03710:41
#0381b:1300000013000013
#03817:00000013000000000000000000000000
#03812:26000013000000000000000000000000
#0381f:11
#0411b:00000000005200000000000013000000
#04118:00000000000000005200000000130000
#04115:00000052000000000000000000001300
#04112:52000000000000001200000000000013
#04117:0000000000120000
#04113:00520000000000000000000000000000
#04114:0052000000000000
#04116:00520000
#0411c:00520000
#0411a:0000005200000000
#04119:00000000000000520000000000000000
#0431b:0000000000001300000000000000000013000000000000000013000000000000
#04316:0000000000000000000000000000000013000000000000000013000000000000
#04317:00000000000000000000131300000000
#04312:13000000000000000000000000000053000000000000000000000000000000000000000000000000130000001300000000000000000000000000000000000000
#04313:00530000000000000000000000005300000000000000000000000000000000000000000000000000000000000000000000000000000000000000000000000000
#04314:00005300000000000000000000530000000000000000000000000000000000000000000000000000000000000000000000000000000000000000000000000000
#04315:00000053000000000000000053000000000000000000000000000000000000000000000000000000000000000000000000000000000000000000000000000000
#0431a:00000000000000000000000000530000000000000000000000000000000000000000000000000000000000000000000000000000000000000000000000000000
#04319:0000000000000053000000000000000000000000000000000000000000000000
#04318:00000000000000000000000000000053000000000000000000000000000000000000000000000000000000000000000000000000000000000000000000000000
#04715:16000000160000130000000000130013
#04718:00000000001300000000000000001300
#04712:0000001613000000
#0471b:00000000000000000000131300000000
#04710:41
#0481b:1300000013001300000000000000000013000000000000000013000000000000
#04816:0000000013001300000000000000000000000000000000000013000000000000
#04812:1300000000000000001300000000000013000000130013000000000000000000
#04817:0000000000000000001300000000000000000000130013000000000000000000
#04912:00000013000000130000000013000000
#04915:00001300000013000000000000130000
#04918:00130000001313000000000000001300
#0491b:13000000000000130000000000000013
#05012:14003414000000000000000000000013
#0501a:00001414000000000000000000000000
#05016:0000001400000000000000000000000000000000000000000000000000000000
#0501b:00000013
#05018:00000000000000000000000000130000
#05015:0000000000000013
#0521b:00001313003300001300000000000000
#05218:00000000000000000013000000000000
#05215:0000000000130000
#05212:16000000001414000000001300330000
#05216:00001414000000000000001400000000
#0521a:00000000000000000000000000141400
#0661b:13131313
#06618:00001300000000130000000000000000
#06612:13131313
#06615:0013001300000000
#06614:0000000000130000
#06619:0000000000000013
#02012:13000000001313001300000000000000
#02016:00000000000000000000001300000000
#02019:00000000000000000000131300000000
#0201b:13000000000000001300000000131300
#02017:00000013000000000000000000000000
#02014:00001313000000000000000000000000
#01915:00000000000000000000000000130013
#01918:0000000000001313
#0191b:1313
#01912:00000013000000000000000000000000
#01916:0000001300000000
#01917:00000013000000000000000000000000
#01817:1300000000000013
#01816:00000013000000000000001300000000
#0181b:0000000000130000
#01819:00000013
#01814:00000000000000000000000000130000
#01812:00000000000000000000000000000013
#01810:41
#02112:1314151617000023
#0211b:0000000000130000
#02119:00000000001300000000000013000000
#02117:00130000000000000000000000001300
#02116:0000000000130000
#02118:00000013000000000000000000000000
#0211a:00000000000000130000000000000000
#02114:00000023
#02412:1900001413001400
#0241a:0000140000000014
#02416:0000130000000013
#02417:0000001300001300
#02415:0019
#0241b:13
#02512:19000000130000000013000000001400
#0251a:00000014
#02516:00000013
#02517:0000000000000013
#0251b:1300131300000000
#02515:00000000000000130000130000000000
#02518:0013
#02918:00000000160000002600000000230000
#02912:00002400002600160000000000000023
#02916:00140000000000000000000000000000
#0291b:00000023
#02915:0000000000000023
#0291a:24
#03917:13
#03912:1313
#03914:0000001300000000
#04016:12000012
#0401a:00120000001200000000001200000012
#04014:0012001200120012
#04018:00000012000000000012000000000000
#04012:00121200
#0401c:00000000000000120000000000120000
#05112:00001414000000000000000013000000
#0511b:00000000000000000000000000000013
#05115:00000000000000000000000000130000
#05118:0000000000000013
#0511a:14003414000000000000000000000000
#05116:0000001400000000000000000000000000000000000000000000000000000000
#05412:1c0000141c001400
#0541a:0000140000000014
#05416:0000230000000023
#05417:0000002300002300
#0551b:00000000130000000013000000000000
#05512:1c00001300230000
#05515:00000000000000130000000000000000
#05518:00001314
#05516:0000140000000023
#0551a:0000000000000014
#05514:00000023
#05815:0000002300001300
#05812:1600230026000013
#0581b:0000130000000023
#05818:2600001316002300
#05318:00130000000000130000000014000000
#0531a:0000000000000014
#05316:0000000000140023
#05315:0013291300000000
#05312:00000013001300000000230000000000
#0531b:2323
#05314:00000023
#05612:1c0000141c001400
#0561a:0000140000000014
#05616:0000230000000023
#05617:0000002300002300
#05712:1c000000130000000013000000001400
#0571b:0000001300230000
#05718:00000000000000130000000000000000
#05715:0013
#05716:00140000
#05714:00000014
#05719:00000023
#05717:0000000000000023
#05710:41
#0621c:12
#06212:0012
#06318:12
#06316:12
#0631c:0000000000000012
#06312:0000000000000012
#06812:00130000000000130000000000160016
#06818:00001300001300002400140026001600
#06815:00000013000013000000000000000000
#06814:00000000000000000014001400000000
#0681b:23230000
#00312:1313000000000000
#00316:1414000014140000
#0031b:0000000013130000
#00412:1313000000000000
#00416:1414000014140000
#0041b:0000000013130000
#0101b:13
#01016:13240024
#01012:00241300
#01017:0013
#0101a:00000024
#01010:41
#0281b:00130000
#02818:00000000001300000000000000000000
#02815:0000001300000000
#02812:2c000000000000132c00001400001400
#0281a:00000000000000000000001400001400
#0451a:14005454
#04512:00000000540000001400000054545454
#04519:0054000000000000000000000000005400540000000000540000000000000000
#04518:00540000000000540054005400000000
#04517:0000005400000000000000000054000000000000000000000000000000000000
#04516:5354005400540000
#04515:0000000000540000000000540000000000000056005600000000000000000000
#04514:00000054005400000054005400000000
#04513:0000000000000054005400000000000000540000000000540000000000000000
#0461a:14
#04612:54002c1300130000
#0461b:0000001300000013
#04616:00001414
#0461f:00210000
#05916:0000000000140000
#05918:26000000160000002600000000130000
#0591b:00000013
#05915:0000000000000013
#05912:16000000260000001600000000000013
#06112:2400160026000012
#06118:00000000002600160000000000001200
#06116:00140000000000000000120000000000
#0611c:0000000000120000
#0611a:0024000000001200
#06114:00000012
#06012:2c000000130000002c00001400001400
#06015:00000000001300000000000000000000
#06018:0000001300000000
#0601b:00000000000000130000000000000000
#0601a:00000000000000000000001400001400
#04415:1300000000000000000000000000005300000000000000000000000000000053
#04412:001300000000000000130000000000000013000000130000
#04417:000013000000000000530000000000001300000000530000
#04414:00001300000000530000130000000053
#04419:000000000000000013000000000000530000000000000000000000001300000000000000000000530000000000000000
#04416:000000000013000000000000531300000000000000000000
#0441b:00131313
#0441a:0000000000000000005300000000000000000000000000000053000000000000
#04418:0000000000000000000000530000000000000000000000000000005300000000
#04413:0000000000000000000000000053000000000000000000000000000000530000
#0131b:23000000000000000000000000000023
#01319:0023002300000000
#01316:00240000
#01312:23002c23
#01314:0023002300000000
#01315:00000000000000000000000000230000
#01318:0000000000000023
#00112:007c00000000
#00016:000000000000000000000000000000000000000000000000000000000000000000000000000000000000000000000000000000000000000000000000000000000000000000000000000000000000000000000000000000000000000000000000000000000000000000000000000000000000000000000000000000000000000000000000000000000000000000000000000000000000000000000000000000000000000000000000000000000000000000000000000000000000000000000000000000000000000000000000000000000000000000000000000000000000000000000000000000000000000000000000000000000000000000000000000000000000000000000000000000000000000000000000000000000000000000000000000000000000000000000000000000000000000000000000000000000000000000000000000000000000000000000000000000000000000000000000000000000000000000000000000000000000000000000000000000000000000000000000000000000000000000000000000000000000000000000000000000000000000000000000000000000000000000000000000000000000000000000000000000000000000000000000000000000000000000000000000000000000000000000000000000000000000000000000000000000000000000000000000000000000000000000000000000000000000000000000000000000000000000000000000000000000000000000000000000000000000000000000000000000000000000000000000000000000000000000000000000000000000000000000000000000000000000000000000000000000000000000000000000000000000000000000000000000000000000000000000000000000000000000000000000000000000000000000000000000000000000000000000000000000000000000000000000000000000000000000000000000000000000000000000000000000000000000000000000000000000000000000000000000000000000000000000000000000000000000000000000000000000000000000000000000000000000000000000000000000000000000000000000000000000000000000000000000000000000000000000000000000000000000000000000000000000000000000000000000000000000000000000000000000000000000000000000000000000000000000000000000000000000000000000000000000000000000000000000000000000000000000000000000000000000000000000000000000000000000000000000000000000000000000000000000000000000000000000000000000000000000000000000000000000000000000000000000000000000000000000000000000000000000000000000000000000000000000000000000000000000000000000000000000000000000000000000000000000000000000000000000000000000000000000000000000000000000000000000000000000000000000000000000000000000000000000000738400000000000000000000000000000000000000000000000000000000000000000000000000000000000000000000000000000000000000000000000000000000000000000000000000000000000000000000000000000000000000000000000000000000000000000000000000000000000000000000000000000000000000000000000000000000000000000000000000000000000000000000000000000000000000000000000000000000000000000000000000000000000000000000000000000000000000000000000000000000000000000000000000000000000000000000000000000000000000000000000000000000000000000000000000000000000000000000000000000000000000000000000000000000000000000000000000000000000000000000000000000000000000000000000000000000000084740000000000000000000000000000000000000000000000000000000000000000000000000000000000000000000000000000000000000000000000000000000000000000000000000000000000000000000000000000000000000000000000000000000000000000000000000000000000000000000000000000000000000000000000000000000000000000000000000000000000000000000000000000000000000000000000000000000000000000000000000000000000000000000000000000000000000000000000000000000000000000000000000000000000000000000000000000000000000000000000000000000000000000000000000000000000000000000000000000000000000000000000000000000000000000000000000000000000000000000000000000000000000000000000000000000000000000000000000000000000000000000000000000000000000000000000000000000000000000000000000000000000000000000000000000000000000000000000000000000000000000000000000000000000000000000000000000000000000000000000000000000000000000000000000000000000000000000000000000000000000000000000000000000000000000000000000000000000000000000000
#0165b:0000000053000013
#01657:00000000000013000000005300000000
#01656:00000053000000000000000000000000
#01652:0000001300000000
#01752:6313
#0175b:00000053000000001300000000000000
#01757:0000005300000000
#01756:00000063000000000000000000000000
#04652:141c0000
#0465a:24
#00552:00000013
#0055b:00000013
#00658:63
#0065b:0053
#00657:00000000000000000000006300000000
#01352:001c
#02255:49
#02252:0039
#02852:1c1c
#03152:5363
#0315b:53
#03252:00000063000000000000006300000000
#0325b:0000001353000013
#03256:0000001400000014
#01456:63
#01457:00000053000000000000000000000000
#03056:00000053000000000000000000000000
#03057:63
#03356:00000053000000000000000000000000
#03357:6300006300000000
#03352:0015
#0335b:0013
#0365b:53
#03652:00000063000000000000000000000000
#03656:0053
#03657:00000000000000000000006300000000
#0375b:5313
#03752:00000063000000001300000000000000
#03756:0000000000000000002400000000000000000000000000000000000016000000
#03758:0000000000160000
#03754:00000016
#0385b:5353
#03852:16000063000000000000000000000000
#03857:00000053000000000000000000000000
#04752:0063
#04756:00000000000000000000001300000000
#04856:0000000000005300000000004300000000000000000000000023000000000000
#0485b:0000000000005300000000004300000000000000000000000023000000000000
#04852:0000000000000000002300000000000000000000000063000000000033000000
#04857:0000000000000000002300000000000000000000000063000000000033000000
#05052:54000054000000001400000000000000
#0505a:00000064000000001400000000000000
#05056:0000002400000000000000000000000000000000000000000000000000000000
#04952:00000063000000230000000000000000
#04958:0000006313000000
#0495b:00000000000000230000000000000000
#04955:0000005313000000
#06755:00000000000000530000000000000000
#06752:00130013
#00256:4444000034340000
#00752:0063
#00756:00000000000000000000005300000000
#00858:1616
#00852:00160016
#00952:0014
#0095a:0014
#0115a:64440000
#01155:0023000000000000
#01152:54340000
#01158:0023000000000000
#01256:00480000
#01252:00000038
#01557:0000006300000000
#01556:0053
#02052:0000000063000013
#02056:00000000000000000000006300000000
#0205b:5300001300000000
#02057:00000053000000000000000000000000
#01857:5313
#01856:00000063000000000000000000000000
#01852:0013
#0195b:6313
#01952:00000053000000001300000000000000
#01956:0000005300000000
#01957:00000053000000000000000000000000
#02152:0017
#02355:49
#02452:39
#02455:0049
#02552:39
#02752:36363600
#02758:46464600
#03452:63
#0345b:00000053000000001300000000000000
#03456:0013
#03457:0000000000000000002300000000000000000000000000000000000000000000
#03952:6353
#03957:63000013
#0395b:00000013
#04152:0052
#04157:0000000000220000
#04255:0000001300000000
#0425b:0000001300000000
#04357:00000000000000000000005300000000
#04352:00000000000013000000005300000000
#04358:0000001300000000
#0435b:0000000000000000000000000000000000000000000000000023000000000000
#04356:0000000000000000000000000000000000000000000000000023000000000000
#05256:0000001800000000
#0525b:00000023000000000000000000000000
#05252:00000000000000000000002300001800
#05452:3c4c
#05652:3c4c
#05752:3c
#0625c:62
#06252:0052
#06358:62
#06356:62
#0635c:0000000000000022
#06352:0000000000000022
#0655b:00130013
#06552:00130000
#0665b:00135300
#06657:0000000000130000
#06656:0000000000000013
#06652:00000053
#00356:4444000034340000
#00456:4444000034340000
#0105b:53
#01056:53140014
#01052:00146300
#01057:0063
#0105a:00000014
#02655:49
#02652:0036
#02658:0046
#02952:00000000003600000000000000000000
#02958:0046
#03552:00000063000000001300000000000000
#0355b:53
#03556:0000000000000000002300000000000000000000000000000000000000000000
#03557:0013
#0515a:64000064000000001400000000000000
#05152:00000054000000001400000000000000
#05156:0000002400000000000000000000000000000000000000000000000000000000
#0535b:0013
#05552:3c
#05852:4636
#05858:4636
#05958:46464600
#05952:36363600
#06152:0036
#06158:00000000004600000000000000000000
#06052:4c3c
#000370:120052000053000000000000000000540000000000000000000000000000000000000000000000000000000000000000000000000000005500000000000000000054000000000000000000000000000000000000000000000000000000000000000000000000000000530000000000000000000000000000000000000000000000000000000000000000000000000000000000000000000000000000000000000000000000000000000000000000000000000000000000000000000000000000000000000000000000000000000000000000000000000000000000000000000000000000000000000000000000000000000000000000000000000000000000000000000000000000000000000000000000000000000000000000000000000000000000000000000000000000000000000000000000000000000000000000000000000000000000000000000000000000000000000000000000000000000000000000000000000000530000000000000000000000000000000000000000000000000000000000000000000000000000000000000000000000000000000000000000000000000000000000000000000000000000000000000000000000000000000000000000000000000000000000000000000000000000000000000000000000560000000000000000000000000000000000000000000000000000000000560000000000000000000000000000000000000000000000000000000000550000000000000000000000000000000000000000000000000000000000000000000000000000000000000000000000000000000000000000000000000000000000000000000000000000000000000000000000000000000000000000000000000000000000000000000000000000000000000000000000530000000000000000000000000000000000000000000000000000000000000000000000000000000000000000000000000000000000000000000000000000000000000000000000000000530000000000000000000000000000000000000000000000000000000000530000000000000000000000000000000000000000000000000000000000540000000000000000000000000000000000000000000000000000000000540000000000000000000000000000000000000000000000000000000000000000000000000000000000000000000000000000000000000000000000550000000000000000000000000000000000000000000000000000000000000000000000000000000000000000000000000000000000000000000000540000000000000000000000000000000000000000000000000000000000530000000000000000000000000000000000000000000000000000000000530000000000000000000000000000000000000000000000000000000000000000000000000000000000000000000000000000000000000000000000000000000000000000000000000000000000000000000000000000000000000000000000000000000000000000000000000000000000000000000000000000000000000000000000000000000000000000000000000000000000000000000000000000000000000000000000000000000000000000000000000000000000000000000000000000000000000000000000000000000000000000000000000000000000000000000000000000000000000000000000000000000000000000000000000000000000000000000000000000000000000000000000000000000000000000000000000000000000000000000000000000000000000000000000000000000000000000000000000000000000000000000000000000000000000000000000000000000000000000000000000000000000000000000000000000000000000000000000000000000000000000000000000000000000000000000000000000000000000000000000000000000000000000000000000000000000000000000000000000000000000000000000000000000000000000000000000000000000000000000000000000000000000000000000000000000000000000000000000000000000000000000000000000000000000000000000000000000000000000000000000000000000000000000000000000000000000000000000000000000000000000000000000000000000000000000000000000000000000000000000000000000000000000000000000000000000000000000000000000000000000000000000000000000000000000000000000000000000000000000000000000000000000000000000000000000000000000000000000000000000000000000000000000000000000000000000000000000000000000000000000000000000000000000000000000000000000000000000000000000000000000000000000000000000000000000000000000000000000000000000000000000000000000000000000000000000000000000000000000000000000000000000000000000000000000000000000000000000000000000000000000000000000000000000000000000000000000000000000000000000000000000000000000000000000000000000000000000000000000000000000000000000000000000000000000
#000360:000000000000000000005300000000000000000000000000000000000000000000000000000000000000000000000000000000000000000000000000000000000000000000005300000000000000000000000000000000000000000000000000000000000000000053000000000000000000000000000000000000000000000000000000000000000000000000000000000000000000000000000000000000000000000000000000000000000000000000000000000000000000000000000000000000000000000000000000000000000000000000000000000000000000000000000000000000000000000000000000000000000000000000000000000000000000000000000000000000000000000000000000000000000000000000000000000000000000000000000000000000000000000000000000000000000000000000000000000000000000000000000000000000000000000000000000000000000000000000000000000000000000000000000000000000530000000000000000000000000000000000000000000000000000000000530000000000000000000000000000000000000000000000000000000000000000000000000000000000000000000000000000000000000000000000000000000000000000000000000000000000000000000000000000000000000000000000000000000000000000000000000000000000000000000000000000000000000000000000000000000000000000000000000000000000000000000000000000000000000000000000000000000000000000000000000000000000000000000000000000000000000000000000000000000000530000000000000000000000000000000000000000000000000000000000530000000000000000000000000000000000000000000000000000000000000000000000000000000000000000000000000000000000000000000000000000000000000000000000000000000000000000000000000000000000000000000000000000000000000000000000000000000000000000000000000000000000000000000000000000000000000000000000000000000000000000000000000000000000000000000000000000000000000000000000000000000000000000000000000000000000000000000000000000000000560000000000000000000000000000000000000000000000000000000000000000000000000000000000000000000000000000000000000000000000550000000000000000000000000000000000000000000000000000000000000000000000000000000000000000000000000000000000000000000000000000000000000000000000000000000000000000000000000000000000000000000000000000000000000000530000000000000000000000000000000000000000000000000000000000000000000000000000000000000000000000000000000000000000000000000000000000000000000000000000000000000000000000000000000000000000000000000000230000000000000000000000000000000000000000000000000000000000000000000000000000000000000000000000000000000000000000000000000000000000000000000000000000000000000000000000000000000000000000000000000000000000000000000000000000000000000000000000000000000000000000000000000000000000000000000000000000000000000000000000000000000000000000000000000000000000000000000000000000000000000000000000000000000000000000000000000000000000000000000000000000000000000000000000000000000000000000000000000000000000000000000000000000000000000000000000000000000000000000000000000000000000000000000000000000000000000000000000000000000000000000000000000000000000000000000000000000000000000000000000000000000000000000000000000000000000000000000000000000000000000000000000000000000000000000000000000000000000000000000000000000000000000000000000000000000000000000000000000000000000000000000000000000000000000000000000000000000000000000000000000000000000000000000000000000000000000000000000000000000000000000000000000000000000000000000000000000000000000000000000000000000000000000000000000000000000000000000000000000000000000000000000000000000000000000000000000000000000000000000000000000000000000000000000000000000000000000000000000000000000000000000000000000000000000000000000000000000000000000000000000000000000000000000000000000000000000000000000000000000000000000000000000000000000000000000000000000000000000000000000000000000000000000000000000000000000000000000000000000000000000000000000000000000000000000000000000000000000000000000000000000000000000000000000000000000000000000000000000000000000000000000000000000000000000000
#000350:000000005400000000000000540000000000000000000000000000000000000000000000000000000000000000000000000000000000000000000000000000000000000000000000000000000000000000000000000000540000000000540000000000000000000000000000000000550000000000540000000000000000000000000000000000000000000000000000000000000000530000000000530000000000000000000000000000000000000000000000000000000000000000000000530000000000530000000000000000000000000000000000000000000000000000000000000000000000000000000000000000000000000000000000000000000000000000000000000000000000000000000000000000000000000000000000000000000000000000000000000000000000000000000000000000000000000000000000000000000000000000000000000000000000000000000000000000000000000000000000000000000000000000000000000000000000000000000000
#000380:000000000055005600550000000000000000000000000000000000000000000000000000000000000000000000000000000000000000000000000000000000000000000000000000000000000000530000000000530000000000540000000000000000000000000000000000000000000000540000000000530000000000530000000000000000000000000000000000000000000000000000000000000000000000000000000000000000000000000000000000000000000000000000000000000000000000000000000000000000000000000000000000000000000000000000000000000000000000000000000000000000000000000000000000000000000000000000000000000000000000000000000000000000000000000000000000000000000000000000000000000000000000000000000000000000000000000000000000000000000000000000000000000000000000000000000000000000000000000000000000000000000000000000000000000000000000000000000000
#000320:00560000000000000000000000000000000000000000000000000000000000000000000000000000000000000000000000000000000000000000000000000000
#000330:000000005500000000000000000000000000000000000000000000000000000000000000000000000000000000000000000000000000000000000000000000000000000000000000000000000000000000000000560000560000000000000000000000000000000000000000000000000000000000000000000000000000000000000000000000000000000000000000000000000000000000000000000000000000000000000000000000000000000000000000000000000000000000000000
#000340:000000000000000000005500000000000000000000000000000000000000000000000000000000000000000000000000000000000000000000000000000000000000000000000000000000000000000000000000000000000000000000000000000000560000000000550000000000000000000000000000000000000000000000000000000000000000000000000000000000000000000000000000000000000000540000000000000000000000000000000000550000000000540000000000000000000000000000000000000000000000000000000000000000000000000000000000000000000000000000000000000000000000000000000000000000000000000000000000000000000000000000000000000000000000000000000000000000000000000000000000000000000000000000000000000000000000000000000000000000000000000000000000000000000000000000000000000000000000000000000000000000000000000000000000000000000000000000000000
#000360:000000000000000000000000000000000000000000000000000000000000000000000000000000000000000000000000000000000000000000000000000000000000000000000000000000000000000000000000000000000000000000000000000000000000000000000000000000000000000000000000000000000000000000000000000000000000000000000000000000000000000000000000000000000000000000000000000000000000000000000000000000000000000000000000000000000000000000000000000000000000000000000000000000000000000000000000000000000000000000000000000000000000000000000000000000000000000000000000000000000000000000000000000000000000000000000000000000000000000000000000000000000000000000000000000000000000000000000000000000000000000000000000000000000000000000000000000000000000000000000000000000000000000000000000000000000000000000000000000000000000000000000000000000000000000000000000000000000000000000000000000000000000000000000000000000000000000000000000000000000000000000000000000000000000000000000000000000000000000000000000000000000000000000000000000000000000000000000000000000000000000000000000000000000000000000000000000000000000000000000000000000000000000000000000000000000000000000000000000000000000000000000000000000000000000000000000000000000000000000000000000000000000000000000000000000000000000000000000000000000000000000000000000000000000000000000000000000000000000000000000000000000000000000000000000000000000000000000000000000000000000000000000000000000000000000000000000000000000000000000000000000000000000000000000000000000000000000000000000000000000000000000000000000000000000000000000000000000000000000000000000000000000000000000000000000000000000000000000000000000000000000000000000000000000000000000000000000000000000000000000000000000000000000000000000000000000000000000000000000000000000000000000000000000000000000000000000000000000000000000000000000000000000000000000000000000000000000000000000000000000000000000000000000000000000000000000000000000000000000000000000000000000000000000000000000000000000000000000000000000000000000000000000000000000000000000000000000000000000000000000000000000000000000000000000000000000000000000000000000000000000000000000000000000000000000000000000000000000000000000000000000000000000000000000000000000000000000000000000000000000000000000000000000001400000000000000000000000000000000000000000000000000000000000000000000000000000000000000000000000000000000000000000000000000000000000000000000000000000000000000000000000000000000000000000000000000000000000000000000000000000000000000000000000000000000000000000000000000000000000000000000000000000000000000000000000000000000000000000000000000000000000000000000000000000000000000000000000000000000000000000000000000000000000000000000000000000000000000000000000000000000000000000000000000000000000000000000000000000000000000000000000000000000000000000000000000000000000000000000000000000000000000000000000000000000000000000000000000000000005424000000000000000000000000000000000000000000000000000000000000000000000000000000000000000000000000000000000000000000000000000000000000000000000000000000000000000000000000000000000000000000000000000000000000000000000000000000000000000000000000000000000000000000000000000000000000000000000000000000000000000000000000000000000000000000000000000000000000000000000000000000000000000000000000000000000000000000000000000000000000000000000000000000000000000000000000000000000000000000000000000000000000000000000000000000000000000000000000000000000000000000000000000000000000000000000000000000000000000000000000000000000000000000000000000000000000000000000000000000000000000000000000000000000000000000000000000000000000000000000000000000000000000000000000000000000000000000000000000000000000000000000000000000000000000000000000000000000000000000000000000000000000000000000000000000000000000000000000000000000000000000000000000000000000000000000000000000000000000000000000
#000330:000000000000000000000000000000000000000000000000000000000000000000000000000000000000000000000000000000000000000000000000000000000000000000000000000000000000000000000000000000000000000000000000000000000000000000000000000000000000000000000000000000000000000000000000000000000000000000000000000000000000000000000000000000000000000000000000000000000000000000000000000000000000000000000000000000000000000000000000000000000000000000000000000000000000000000000000000000000000000000000000000000000000000000000000000000000000000000000000000000000000000000000000000000000000000000000000000000000000000000000000000000000000000000000000000000000000000000000000000000000000000000000000000000000000000000000000000000000000000000000000000000000000000000000000000000000000000000000000000000000000000000000000000000000000000000000000000000000000000000000000000000000000000000000000000000000000000000000000000000000000000000000000000000000000000000000000000000000000000000000000000000000000000000000000000000000000000000000000000000000000000000000000000000000000000000000000000000000000000000000000000000000000000000000000000000000000000000000000000000000000000000000000000000000000000000000000000000000000000000000000000000000000000000000000000000000000000000000000000000000000000000000000000000000000000000000000000000000000000000000000000000000000000000000000000000000000000000000000000000000000000000000000000000000000000000000000000000000000000000000000000000000000000000000000000000000000000000000000000000000000000000000000000000000000000000000000000000000000000000000000000000000000000000000000000000000000000000000000000000000000000000000000000000000000000000000000000000000000000000000000000000000000000000000000000000000000000000000000000000000000000000000000000000000000000000000000000000000000000000000000000000000000000000000000000000000000000000000000000000000000000000000000000000000000000000000000000000000000000000000000000000000000000000000000000000000000000000000000000000000000000000000000000000000000000000000000000000000000000000000000000000000000000000000000000000000000000000000000000000000000000000000000000000000000000000000000000000000000000000000000000000000000000000000000000000000000000000000000000000000000000000000000000000000000000000000000000000000000000000000000560000000000000000000000000000000000000000000000000000000000000000000000000000000000000000000000000000000000000000000000560000000000000000000000000000000000000000000000000000000000000000000000000000000000000000000000000000000000000000000000560000000000000000000000000000000000000000000000000000000000000000000000000000000000000000000000000000000000000000000000560000000000000000000000000000000000000000000000000000000000005600560056005600560056005600560056005600560056005600560056005600560056005600560056005600560056005600560056005600560056005600560056005600560056005600560056005600560056005600560000000000000000000000000000000000000000000000000000000000000000000000000000000000000000000000000000000000000000000000000000000000000000000000000000000000000000000000000000000000000000000000000000000000000000000000000000000000000000000000000000000000000000000000000000000000000000000000000000000000000000000000000000000000000000000000000000000000000000000000000000000000000000000000000000000000000000000000000000000000000000000000000000000000000000000000000000000000000000000000000000000000000000000000000000000000000000000000000000000000000000000000000000000000000000000000000000000000000000000000000000000000000000000000000000000000000000000000000000000000000000000000000000000000000000000000000000000000000000000000000000000000000000000000000000000000000000000000000000000000000000000000000000000000000000000000000000000000000000000000000000000000000000000000000000000000000000000000000000000000000000000000000000000000000000000000000000000000000000000000000000
#000370:000000000000000000000000000000000000000000000000000000000000000000000000000000000000000000000000000000000000000000000000000000000000000000000000000000000000000000000000000000000000000000000000000000000000000000000000000000000000000000000000000000000000000000000000000000000000000000000000000000000000000000000000000000000000000000000000000000000000000000000000000000000000000000000000000000000000000000000000000000000000000000000000000000000000000000000000000000000000000000000000000000000000000000000000000000000000000000000000000000000000000000000000000000000000000000000000000000000000000000000000000000000000000000000000000000000000000000000000000000000000000000000000000000000000000000000000000000000000000000000000000000000000000000000000000000000000000000000000000000000000000000000000000000000000000000000000000000000000000000000000000000000000000000000000000000000000000000000000000000000000000000000000000000000000000000000000000000000000000000000000000000000000000000000000000000000000000000000000000000000000000000000000000000000000000000000000000000000000000000000000000000000000000000000000000000000000000000000000000000000000000000000000000000000000000000560000000000000000000000000000000000000000000000000000000000560000000000000000000000000000000000000000000000000000000000560000000000000000000000000000000000000000000000000000000000565656565656565656565656565656565656565656565656565656565656565656565656565656565656565600000000000000000000000000000000000000000000000000000000000000000000000000000000000000000000000000000000000000000000000000000000000000000000000000000000000000000000000000000000000000000000000000000000000000000000000000000000000000000000000000000000000000000000000000000000000000000000000000000000000000000000000000000000000000000000000000000000000000000000000000000000000000000000000000000000000000000000000000000000000000000000000000000000000000000000000000000000000000000000000000
#000360:000000000000000000000000000000000000000000000000000000000000000000000000000000000000000000000000000000000000000000000000000000000000000000000000000000000000000000000000000000000000000000000000000000000000000000000000000000000000000000000000000000000000000000000000000000000000000000000000000000000000000000000000000000000000000000000000000000000000000000000000000000000000000000000000000000000000000000000000000000000000000000000000000000000000000000000000000000000000000000000000000000000000000000000000000000000000000000000000000000000000000000000000000000000000000000000000000000000000000000000000000000000000000000000000000000000000000000000000000000000000000000000000000000000000000000000000000000000000000000000000000000000000000000000000000000000000000000000000000000000000000000000000000000000000000000000000000000000000000000000000000000000000000000000000000000000000000000000000000000000000000000000000000000000000000000000000000000000000000000000000000000000000000000000000000000000000000000000000000000000000000000000000000000000000000000000000000000000000000000000000000000000000000000000000000000000000000000000000000000000000000000000000000000000000000000000000000000000000000000000000000000000000000000000000000000000000000000000000000000000000000000000000000000000000000000000000000000000000000000000000000000000000000000000000000000000000000000000000000000000000000000000000000000000000000000000000000000000000000000000000000000000000000000000000000000000000000000000000000000000000000000000000000000000000000000000000000000000000000000000000000000000000000000000000000000000000000000000000000000000000000000000000000000000000000000000000000000000000000000000000000000000000000000000000000000000000000000000000000000000000000000000000000000000000000000000000000000000000000000000000000000000000000000000000000000000000000000000000000000000000000000000000000000000000000000000000000000000000000000000000000000000000000000000000000000000000000000000000000000000000000000000000000000000000000000000000000000000000000000000000000000000000000000000000000000000000000000000000000000000000000000000000000000000000000000000000000000000000000000000000000000000000000000000000000000000000000000000000000000000000000000000000000000000000000000000000000000000000000000000000000000000000000000000000000000000000000000000000000000000000000000000000000000000000000000000000000000000000000000000000000000000000000000000000000000000000000000000000000000000000000000000000000000000000000000000000000000000000000000000000000000000000000000000000000000000000000000000000000000000000000000000000000000000000000000000000000000000000000000000000000000000000000000000000000000000000000000000000000000000000000000000000000000000000000000000000000000000000000000000000000000000000000000000000000000000000000000000000000000000000000000000000000000000000000000000000000000000000000000000000140000000000000000000000000000000000000000000000000054000000000000000000000000000000540000000000000000000000000000000000000000000000000000000000005400000000000000000000000000005400000000000000000000000000000000000000000000000000000000000000000000000000000000000000000000000000000000000000000000000000000000000000000000005400000000000000000000000000000000000000000000000000000000000000000000000000000000000000000000000000000000000000000000000000000000000000000000000000000000000000000000000000000000000000000000000000000000000000000000000000000000000000000000000000000000000000000000000000000000000000000054000000000000000000000000000000000000000000000000000000000000000000000000000000000000000000000000000000000000000000000000000000000000000000000000000000000000000000000000000000000000000000000000000000000000000000000000000000000000000000000000000000000000000000000000000000000000000000000000000000000000000000000000000000000000000000000000000000000000000000
#000340:000000000000000000000000000000000000000000000000000000000000000000000000000000000000000000000000000000000000000000000000000000000000000000000000000000000000000000000000000000000000000000000000000000000000000000000000000000000000000000000000000000000000000000000000000000000000000000000000000000000000000000000000000000000000000000000000000000000000000000000000000000000000000000000000000000000000000000000000000000000000000000000000000000000000000000000000000000000000000000000000000000000000000000000000000000000000000000000000000000000000000000000000000000000000000000000000000000000000000000000000000000000000000000000000000000000000000000000000000000000000000000000000000000000000000000000000000000000000000000000000000000000000000000000000000000000000000000000000000000000000000000000000000000000000000000000000000000000000000000000000000000000000000000000000000000000000000000000000000000000000000000000000000000000000000000000000000000000000000000000000000000000000000000000000000000000000000000000000000000000000000000000000000000000000000000000000000000000000000000000000000000000000000000000000000000000000000000000000000000000000000000000000000000000000000000000000000000000000000000000000000000000000000000000000000000000000000000000000000000000000000000000000000000000000000000000000000000000000000000000000000000000000000000000000000000000000000000000000000000000000000000000000000000000000000000000000000000000000000000000000000000000000000000000000000000000000000000000000000000000000000000000000000000000000000000000000000000000000000000000000000000000000000000000000000000000000000000000000000000000000000000000000000000000000000000000000000000000000000000000000000000000000000000000000000000000000000000000000000000000000000000000000000000000000000000000000000000000000000000000000000000000000000000000000000000000000000000000000000000000000000000000000000000000000000000000000000000000000000000000000000000000000000000000000000000000000000000000000000000000000000000000000000000000000000000000000000000000000000000000000000000000000000000000000000000000000000000000000000000000000000000000000000000000000000000000000000000000000000000000000000000000000000000000000000000000000000000000000000000000000000000000000000000000000000000000000000000000000000000000000000000000000000000000000000000000000000000000000000000000000000000000000000000000000000000000000000000000000000000000000000000000000000000000000000000000000000000000000000000000000000000000000000000000000000000000000000000000000000000000000000000000000000000000000000000000000000000000000000000000000000000000000000000000000000000000000000000000000000000000000000000000000000000000000000000000000000000000000000000000000000000000000000000000000000000000000000000000000000000000000000000000000000000000000000000000000000000000000000000000000000000000000000000000000000000000000000000000000000000000000000000000000000000000000000000000000000000000000000000000000000000005400000000000000000000000000000000000000000000000000000000000000000000000000000000000000000000000000000000000000000000000000000000000000000000000000000000000000000000000000000000000000000000000000000000000000000000000000000000000000000000000000000000000055000000000000000000000000000000000000000000000000000000000000000000000000000000000000000000000000000000000000000000000000000000000000000000000000000000000000000000000000000000000000000000000000000000000000000000000000000000000000000000000000000000000000000000000000000000000000000000000000000000000000000000000000000000000000550000000000000000000000000000000000000000000000000000000000000000000000000000000000000000000000000000000000000000000000000000000000000000000000000000000000000000000000000000000000000000000000000000000000000000000000000000000000000000000000000000000000000058000000000000000000000000000000000000000058000000000000
#000380:000000000000000000000000000000000000000000000000000000000000000000000000000000000000000000000000000000000000000000000000000000000000000000000000000000000000000000000000000000000000000000000000000000000000000000000000000000000000000000000000000000000000000000000000000000000000000000000000000000000000000000000000000000000000000000000000000000000000000000000000000000000000000000000000000000000000000000000000000000000000000000000000000000000000000000000000000000000000000000000000000000000000000000000000000000000000000000000000000000000000000000000000000000000000000000000000000000000000000000000000000000000000000000000000000000000000000000000000000000000000000000000000000000000000000000000000000000000000000000000000000000000000000000000000000000000000000000000000000000000000000000000000000000000000000000000000000000000000000000000000000000000000000000000000000000000000000000000000000000000000000000000000000000000000000000000000000000000000000000000000000000000000000000000000000000000000000000000000000000000000000000000000000000000000000000000000000000000000000000000000000000000000000000000000000000000000000000000000000000000000000000000000000000000000000000000000000000000000000000000000000000000000000000000000000000000000000000000000000000000000000000000000000000000000000000000000000000000000000000000000000000000000000000000000000000000000000000000000000000000000000000000000000000000000000000000000000000000000000000000000000000000000000000000000000000000000000000000000000000000000000000000000000000000000000000000000000000000000000000000000000000000000000000000000000000000000000000000000000000000000000000000000000000000000000000000000000000000000000000000000000000000000000000000000000000000000000000000000000000000000000000000000000000000000000000000000000000000000000000000000000000000000000000000000000000000000000000000000000000000000000000000000000000000000000000000000000000000000000000000000000000000000000000000000000000000000000000000000000000000000000000000000000000000000000000000000000000000000000000000000000000000000000000000000000000000000000000000000000000000000000000000000000000000000000000000000000000000000000000000000000000000000000000000000000000000000000000000000000000000000000000000000000000000000000000000000000000000000000000000000000000000000000000000000000000000000000000000000000000000000000000000000000000000000000000000000000000000000000000000000000000000000000000000000000000000000000000000000000000000000000000000000000000000000000000000000000000000000000000000000000000000000000000000000000000000000000000000000000000000000000000000000000000000000000000000000000000000000000000000000000000000000000000000000000000000000000000000000000000000000000000000000000000000000000000000000000000000000000000000000000000000000000000000000000000000000000000000000000000000000000000000000000000000000000000000000000000000000000000000000000000000000000000000000000000000000000000000000000000000000000000000000000000000000000000000000000000000000000000000000000000000000000000000000000000000054000000000000000000000000000000000000000000000000000000000000000000000000000000000000000000000000000000000000000000000000000000000000000000000000000000000000000000000000000000000000000000000000000000000000000000000000000000000000000000000000000000000000000000000000000000000000000000000000000000000000000000000000000000000000000000000000000000000000000000000000000000000000000000000000000000000000000000000000000000000000000000000000000000000000000000000000000000000000000000000000000000000000000000000000000000000000000000000000000000000000000000000000000000000000000000000000000000000000000000000000000000000000000000000000000000000000000000000000000000000000000000000000000000000000000000000000000000000000000000000000000000000000000000000000000000000000000000000000000000000000000000000000000000000000
#000350:000000000000000000000000000000000000000000000000000000000000000000000000000000000000000000000000000000000000000000000000000000000000000000000000000000000000000000000000000000000000000000000000000000000000000000000000000000000000000000000000000000000000000000000000000000000000000000000000000000000000000000000000000000000000000000000000000000000000000000000000000000000000000000000000000000000000000000000000000000000000000000000000000000000000000000000000000000000000000000000000000000000000000000000000000000000000000000000000000000000000000000000000000000000000000000000000000000000000000000000000000000000000000000000000000000000000000000000000000000000000000000000000000000000000000000000000000000000000000000000000000000000000000000000000000000000000000000000000000000000000000000000000000000000000000000000000000000000000000000000000000000000000000000000000000000000000000000000000000000000000000000000000000000000000000000000000000000000000000000000000000000000000000000000000000000000000000000000000000000000000000000000000000000000000000000000000000000000000000000000000000000000000000000000000000000000000000000000000000000000000000000000000000000000000000000000000000000000000000000000000000000000000000000000000000000000000000000000000000000000000000000000000000000000000000000000000000000000000000000000000000000000000000000000000000000000000000000000000000000000000000000000000000000000000000000000000000000000000000000000000000000000000000000000000000000000000000000000000000000000000000000000000000000000000000000000000000000000000000000000000000000000000000000000000000000000000000000000000000000000000000000000000000000000000000000000000000000000000000000000000000000000000000000000000000000000000000000000000000000000000000000000000000000000000000000000000000000000000000000000000000000000000000000000000000000000000000000000000000000000000000000000000000000000000000000000000000000000000000000000000000000000000000000000000000000000000000000000000000000000000000000000000000000000000000000000000000000000000000000000000000000000000000000000000000000000000000000000000000000000000000000000000000000000000000000000000000000000000000000000000000000000000000000000000000000000000000000000000000000000000000000000000000000000000000000000000000000000000000000000000000000000000000000000000000000000000000000000000000000000000000000000000000000000000000000000000000000000000000000000000000000000000000000000000000000000000000000000000000000000000000000000000000000000000000000000000000000000000000000000000000000000000000000000000000000000000000000000000000000000000000000000000000000000000000000000000000000000000000000000000000000000000000000000000000000000000000000000000000000000000000000000000000000000000000000000000000000000000000000000000000000000000000000000000000000000000000000000000000000000000000000000000000000000000000000000000000000000000000000000000000000000000000000000000000000000000000000000000000000000000000000000000000000000000000000000000000000000000000000000000000000000000000000000000000000000000000000000000000000000000000000000000000000000000000000000000000000000000000000000000000000000000000000000000000000000000000000000000000000000000000000000000000000000000000000000000000000000000000000000000000000000000000000000000000000000000000000000000000000000000000000000000000000000000000000000000000000000000000056000000000000000000000000000000000000000000000000000000000000000000000056000000000000000000000000000000000000000000000000000000000000000000000000000000000000000000000000000000000000000000000000000000000000000056000000000000000000000000000000000000000000000000000000000000000000000000000000000000000000000000000000000000000000000000000000000000000000000000000000000000000000000000000000000000000000000000000000000000000000000000000000000000000000000000000000000000000000000000000000000000
#000370:000000000000000000000000000000000000000000000000000000000000000000000000000000000000000000000000000000000000000000000000000000000000000000000000000000000000000000000000000000000000000000000000000000000000000000000000000000000000000000000000000000000000000000000000000000000000000000000000000000000000000000000000000000000000000000000000000000000000000000000000000000000000000000000000000000000000000000000000000000000000000000000000000000000000000000000000000000000000000000000000000000000000000000000000000000000000000000000000000000000000000000000000000000000000000000000000000000000000000000000000000000000000000000000000000000000000000000000000000000000000000000000000000000000000000000000000000000000000000000000000000000000000000000000000000000000000000000000000000000000000000000000000000000000000000000000000000000000000000000000000000000000000000000000000000000000000000000000000000000000000000000000000000000000000000000000000000000000000000000000000000000000000000000000000000000000000000000000000000000000000000000000000000000000000000000000000000000000000000000000000000000000000000000000000000000000000000000000000000000000000000000000000000000000000000000000000000000000000000000000000000000000000000000000000000000000000000000000000000000000000000000000000000000000000000000000000000000000000000000000000000000000000000000000000000000000000000000000000000000000000000000000000000000000000000000000000000000000000000000000000000000000000000000000000000000000000000000000000000000000000000000000000000000000000000000000000000000000000000000000000000000000000000000000000000000000000000000000000000000000000000000000000000000000000000000000000000000000000000000000000000000000000000000000000000000000000000000000000000000000000000000000000000000000000000000000000000000000000000000000000000000000000000000000000000000000000000000000000000000000000000000000000000000000000000000000000000000000000000000000000000000000000000000000000000000000000000000000000000000000000000000000000000000000000000000000000000000000000000000000000000000000000000000000000000000000000000000000000000000000000000000000000000000000000000000000000000000000000000000000000000000000000000000000000000000000000000000000000000000000000000000000000000000000000000000000000000000000000000000000000000000000000000000000000000000000000000000000000000000000000000000000000000000000000000000000000000000000000000000000000000000000000000000000000000000000000000000000000000000000000000000000000000000000000000000000000000000000000000000000000000000000000000000000000000000000000000000000000000000000000000000000000000000000000000000000000000000000000000000000000000000000000000000000000000000000000000000000000000000000000000000000000000000000000000000000000000000000000000000000000000000000000000000000000000000000000000000000000000000000000000000000000000000000000000000000000000000000000000000000000000000000000000000000000000000000000000000000000000000000000000000000000000000000000000000000000000000000000000000000000000000000000000000000000000000000000000000000000000000000000000000000000000000000000000000000000000000000000000000000000000000000000000000000000000000000000000000000000000000000000000000000000000000000000000000000000000000000000000000000000000000000000000000000000000000000000000000000000000000000000000000000000000000000000000000000000000000000000000000000000000000000000000000000000000000000000000000000000000000000000000000000000000000000000005500000000000000000000000000000000000000000000000000000000000000000000000000000000000000000000000000000000000000000000000000000000000000000000000000000000000000000000000000000000000000000000000000000000000000000000000000000000000000000000000000000000000000000000000000000000000000000000000000000000000000000000000000000000000000000000000000000000000000000000000057000000000000000000000000000000
#000330:000000000000000000000000000000000000000000000000000000000000000000000000000000000000000000000000000000000000000000000000000000000000000000000000000000000000000000000000000000000000000000000000000000000000000000000000000000000000000000000000000000000000000000000000000000000000000000000000000000000000000000000000000000000000000000000000000000000000000000000000000000000000000000000000000000000000000000000000000000000000000000000000000000000000000000000000000000000000000000000000000000000000000000000000000000000000000000000000000000000000000000000000000000000000000000000000000000000000000000000000000000000000000000000000000000000000000000000000000000000000000000000000000000000000000000000000000000000000000000000000000000000000000000000000000000000000000000000000000000000000000000000000000000000000000000000000000000000000000000000000000000000000000000000000000000000000000000000000000000000000000000000000000000000000000000000000000000000000000000000000000000000000000000000000000000000000000000000000000000000000000000000000000000000000000000000000000000000000000000000000000000000000000000000000000000000000000000000000000000000000000000000000000000000000000000000000000000000000000000000000000000000000000000000000000000000000000000000000000000000000000000000000000000000000000000000000000000000000000000000000000000000000000000000000000000000000000000000000000000000000000000000000000000000000000000000000000000000000000000000000000000000000000000000000000000000000000000000000000000000000000000000000000000000000000000000000000000000000000000000000000000000000000000000000000000000000000000000000000000000000000000000000000000000000000000000000000000000000000000000000000000000000000000000000000000000000000000000000000000000000000000000000000000000000000000000000000000000000000000000000000000000000000000000000000000000000000000000000000000000000000000000000000000000000000000000000005800000000000000000000
#001330:000000000000000000000000000000000058000000000000000000000000000000000000000000000000000000000000000000000000000000000000000000000000000000000000000000000000000000000000000000000000000000000000000000000000000000000000000000000000000000000000000000000000000000000000000000000000000000000000000000000000000000000000000000000000000000000000000000000000000000000000000000000000000000000000000000000000000000000000000000000000000000000000000000000000000000000000000000000000000000000000000000000000000000000000000000000000000000000000000000000000000000000000000000000000000000000000000000000000000000000000000000000000000000000000000000000000000000000000000000000000000000000000000000000000000000000000000000000000000000000000000000000000000000000000000000000000000000000000000000000000000000000000000000000000000000000000000000000000000000000000000000000000000000000000000000000000000000000000000000000000000000000000000000000000000000000000000000000000000000000000000000000000000000000000000000000000000000000000000000000000000000000000000000000000000000000000000000000000000000000000000000000000000000000000000000000000000000000000000000000000000000000000000000000000000000000000000000000000000000000000000000000000000000000000000000000000000000000000000000000000000000000000000000000000000000000000000000000000000000000000000000000000000000000000000000000000000000000000000000000000000000000000000000000000000000000000000000000000000000000000000000000000000000000000000000000000000000000000000000000000000000000000000000000000000000000000000000000000000000000000000000000000000000000000000000000000000000000000000000000000000000000000000000000000000000000000000000000000000000000000000000000000000000000000000000000000000000000000000000000000000000000000000000000000000000000000000000000000000000000000000000000000000000000000000000000000000000000000000000000000000000000000000000000000000000000000000000000000000000000000000000000000000000000000000000000000000000000000000000000000000000000000000000000000000000000000000000000000000000000000000000000000000000000000000000000000000000000000000000000000000000000000000000000000000000000000000000000000000000000000000000000000000000000000000000000000000000000000000000000000000000000000000000000000000000000000000000000000000000000000000000000000000000000000000000000000000000000000000000000000000000000000000000000000000000000000000000000000000000000000000000000000000000000000000000000000000000000000000000000000000000000000000000000000000000000000000000000000000000000000000000000000000000000000000000000000000000000000000000000000000000000000000000000000000000000000000000000000000000000000000000000000000000000000000000000000000000000000000000000000000000000000000000000000000000000000000000000000000000000000000000000000000000000000000000000000000000000000000000000000000000000000000000000000000000000000000000000000000000000000000000000000000000000000000000000000000000000000000000000000000000000000000000000000000000000000000000000000000000000000000000000000000000000000000000000000000000000000000000000000000000000000000000000000000000000000000000000000000000000000000000000000000000000000000000000000000000000000000000000000000000000000000000000000000000000000000000000000000000000000000000000000000000000000000000000000000000000000000000000000000000000000000000000000000000000000000000000000000000000000000000000000000000000000000000000000000000000000000000000000000000000000000000000000000000000000000000000000000000000000000000000000000000000000000000000000000000000000000000000000000000000000000000000000000000000000000000000000000000000000000000000000000000000000000000000000000000000000000000000000000000000000000000000000000000000000000000000000000000000000000000000000000000000000000000000000000000000000000000000000000000000000000000000000000000000000000000000000000000000000
#001360:000000000000000000000000000000000000000000000000000000000000005800000000000000000000000000000000000000000000000000000000000000000000000000000000000000000000000000000000000000000000000000000000000000000000000000000000000000000000000000000000000000000000000000000000000000000000000000000000000000000000000000000000000000000000000000000000000000000000000000000000000000000000000000000000000000000000000000000000000000000000000000000000000000000000000000000000000000000000000000000000000000000000000000000000000000000000000000000000000000000000000000000000000000000000000000000000000000000000000000000000000000000000000000000000000000000000000000000000000000000000000000000000000000000000000000000000000000000000000000000000000000000000000000000000000000000000000000000000000000000000000000000000000000000000000000000000000000000000000000000000000000000000000000000000000000000000000000000000000000000000000000000000000000000000000000000000000000000000000000000000000000000000000000000000000000000000000000000000000000000000000000000000000000000000000000000000000000000000000000000000000000000000000000000000000000000000000000000000000000000000000000000000000000000000000000000000000000000000000000000000000000000000000000000000000000000000000000000000000000000000000000000000000000000000000000000000000000000000000000000000000000000000000000000000000000000000000000000000000000000000000000000000000000000000000000000000000000000000000000000000000000000000000000000000000000000000000000000000000000000000000000000000000000000000000000000000000000000000000000000000000000000000000000000000000000000000000000000000000000000000000000000000000000000000000000000000000000000000000000000000000000000000000000000000000000000000000000000000000000000000000000000000000000000000000000000000000000000000000000000000000000000000000000000000000000000000000000000000000000000000000000000000000000000000000000000000000000000000000000000000000000000000000000000000000000000000000000000000000000000000000000000000000000000000000000000000000000000000000000000000000000000000000000000000000000000000000000000000000000000000000000000000000000000000000000000000000000000000000000000000000000000000000000000000000000000000000000000000000000000000000000000000000000000000000000000000000000000000000000000000000000000000000000000000000000000000000000000000000000000000000000000000000000000000000000000000000000000000000000000000000000000000000000000000000000000000000000000000000000000000000000000000000000000000000000000000000000000000000000000000000000000000000000000000000000000000000000000000000000000000000000000000000000000000000000000000000000000000000000000000000000000000000000000000000000000000000000000000000000000000000000000000000000000000000000000000000000000000000000000000000000000000000000000000000000000000000000000000000000000000000000000000000000000000000000000000000000000000000000000000000000000000000000000000000000000000000000000000000000000000000000000000000000000000000000000000000000000000000000000000000000000000000000000000000000000000000000000000000000000000000000000000000000000000000000000000000000000000000000000000000000000000000000000000000000000000000000000000000000000000000000000000000000000000000000000000000000000000000000000000000000000000000000000000000000000000000000000000000000000000000000000000000000000000000000000000000000000000000000000000000000000000000000000000000000000000000000000000000000000000000000000000000000000000000000000000000000000000000000000000000000000000000000000000000000000000000000000000000000000000000000000000000000000000000000000000000000000000000000000000000000000000000000000000000000000000000000000000000000000000000000000000000000000000000000000000000000000000000000000000000000000000000000000000000000000000000000000000000000000000000000000000000000000000000000000000000000000000000000000000
#001350:0000000000000000005600000000000000000000000000000000000000000000000000000000000000000000000000000000000000000000000000000000000000000000000000000000000000000000000000000000000000000000000000000000000000000000000000000000000000000000000000000000000000000000000000000000000000000000000000000000000000000000000000000000000000000000000000000000000000000000000000000000000000000000000000000000000000000000000000000000000000000000000000000000000000000000000000000000000000000000000000000000000000000000000000000000000000000000000000000000000000000000000000000000000000000000000000000000000000000000000000000000000000000000000000000000000000000000
#001320:002c00000000
#005370:0013
#0053b0:00000000000000000053230000000000
#005361:0000000000130000
#005321:00000000000000000000005323000000
#006381:13
#0063b1:0023000000000000
#0063b1:0013
#006371:0000000000230000
#006371:00000000000000000000001300000000
#0063b1:0000000000000023
#007321:0013
#007361:0000000000230000
#007361:00000000000000000000001300000000
#007321:0000000000000023
#009361:0014000000000000000000002400000000000000000000000000000000000000
#0093a1:0000000000000000000000000014000024000000000000000000000000000000
#009320:0000000000000000000000000014000024000000000000000000000000000000
#0103b0:13
#010360:00240000
#010361:13
#010321:00240000
#010321:0013
#010361:00000024
#010370:0013
#0103a0:00000024
#0113a0:14240000
#011350:0053000000000000
#011321:14240000
#011381:0053000000000000
#014361:13
#014321:00000023000000000000000000000000
#014370:00000013000000000000000000000000
#0143b0:0000002300000000
#0153b0:1323000000000000
#015321:0013230000000000
#015371:0000001300000000
#0153b1:0023
#015360:0013
#015320:00000000000000000000332300000000
#016360:00000013000000000000000000000000
#016320:0000002300000000
#0163b0:0000000013000023
#016370:00000000000000000000003300000000
#017320:1300002300000000
#017360:00000033000000000000000000000000
#0173b1:00000013000000002300000000000000
#017371:0000003300000000
#018371:13
#0183b1:00000023000000000000000000000000
#018360:00000013000000000000000000000000
#018320:0000003323000000
#018371:0000001323000000
#0193b1:1300002300000000
#019371:00000033000000000000000000000000
#019320:00000013000000002300000000000000
#019360:0000003300000000
#0203b0:1300002300000000
#020370:00000033000000000000000000000000
#020320:0000000013000023
#020360:00000000000000000000003300000000
#030370:13
#0303b0:0000005300002300000000000000000000000000000000000000000000000000
#030361:00000013000000000000000000000000
#030321:0000000000000000005300002300000000000000000000000000000000000000
#031321:13
#031351:0023000000000000
#0313b0:13
#031380:0023000000000000
#031320:0013
#031360:00000000000000000000332300000000
#032320:00000013000000000000000000000000
#032360:0000002400000000
#0323b0:0013
#032360:0000000000000000000000000000000000000054000024000000000000000000
#032321:00000000000000000000001300000000
#032361:0000000000000000000000000000000000000000000000000054000024000000
#033371:13
#0333b1:0023000000000000
#033361:00000013000000000000000000000000
#033321:00000000002300000000000000000000
#033371:0000001300000000
#0333b1:0023
#034321:13
#034361:00003323000000000000000000000000
#0343b0:00000013000033002300000000000000
#034370:0000000000000000005300000000000000000000000000000000000000000000
#034361:0000001323000000
#0353b1:13
#035371:00003323000000000000000000000000
#035320:00000013000033002300000000000000
#035360:0000000000000000005300000000000000000000000000000000000000000000
#035371:0000001323000000
#0363b1:13
#036371:00003323000000000000000000000000
#036320:00000013000000000000000000000000
#036360:0000002300000000
#036360:0013
#036320:00000000000000000000332300000000
#036371:00000000000000000000001300000000
#0363b1:0000000000000023
#0373b1:13
#037371:0023000000000000
#037321:00000013000033002300000000000000
#037361:0000000000000000005400000000000000000000000000000000000000000000
#0373b0:0000001323000000
#0383b0:1300002300000000
#038370:00000033000000000000000000000000
#038321:00000013000000000000000000000000
#038361:0000003333002300
#0383b0:0013
#038320:00000033
#038360:0000000000000033
#039320:33
#039360:00230000
#039371:13003323
#0393b1:00330000
#039391:0000003300000000
#039320:0013
#0393b0:00000023
#041320:00001222
#041370:0000000000520000
#042380:00000013000000000000000023000000000000000000000000000000000000000000000000000000000000000000000000000000000000000000000000000000
#042350:00000000000000000000000000000013000000000000000023000000000000000000000000000000000000000000000000000000000000000000000000000000
#0423b1:00000000000000000000000000000013000000000000000023000000000000000000000000000000000000000000000000000000000000000000000000000000
#043351:00000013000000000000000023000000000000000000000000000000000000000000000000000000000000000000000000000000000000000000000000000000
#043381:00000000000000000000000000000013000000000000000023000000000000000000000000000000000000000000000000000000000000000000000000000000
#043320:00000000000000000000000000000013000000000000000023000000000000000000000000000000000000000000000000000000000000000000000000000000
#043370:00000000000000000000001300002300
#0433b0:0000000000000000000000000000000000000000000000000053000000000000
#043321:00000000000000000000001300003300
#043361:0000000000000000000000000000000000000000000000000053000000000000
#044321:23
#0463a1:14
#046321:002c0000
#0463b1:0013
#046371:0000000000230000
#046321:00000013
#046361:0000000000000023
#047321:1323000000000000
#0473b0:0013230000000000
#047320:0013
#047360:00000000000000000000332300000000
#048360:00000013000023000000000000000000
#048320:0000000000000000005300000000000000000000000000000000000000000000
#0483b1:00000013000023000000000000000000
#048371:0000000000000000005300000000000000000000000000000000000000000000
#048371:00000000000000000000001300002300
#0483b1:0000000000000000000000000000000000000000000000000053000000000000
#048320:00000000000000000000001300002300
#048360:0000000000000000000000000000000000000000000000000053000000000000
#049320:00000013000000000000000000000000
#049350:00000000002300000000000000000000
#049380:0000001323000000
#0493b0:00000000000000530000000000000000
#049351:0000001323000000
#049321:00000000000000530000000000000000
#050321:14003434000000000000000000000000
#050361:0000005400000000000000000000000000000000000000000000000000000000
#0503a1:0000003424000000
#0503a0:00000014000000000000000000000000
#050320:0000003424000000
#050350:0000000000132300
#0513a0:14003434000000000000000000000000
#051360:0000005400000000000000000000000000000000000000000000000000000000
#051320:0000003424000000
#051321:00000014000000000000000000000000
#0513a1:0000003424000000
#0523b1:00000013003300000000000000000000
#052361:0000002800000000
#052321:00000000000000000000001300332800
#0623c1:12
#062381:0032
#063381:32
#0633c1:0000000000000052
#064381:00000000000000000000000036363636
#065381:26
#062320:0012
#063360:32
#063320:0000000000000052
#064320:00000000000000000000000036363636
#065320:26
#0653b0:0000000000132300
#065321:0000000000001323
#0663b1:0013
#066371:0000000000230000
#066321:00000013
#066361:0000000000000023
#067351:00000000000000130000000000000000
#067321:0000000000230000
#0673b0:0000000000132300
#005920:0000135323000000
#005950:00000000005300530000000000000000
#041920:12
#041960:00220000
#0419c1:00120000
#041981:0022
#0449b1:00130000
#044971:0000002300000000
#044920:0000001300000000
#044960:0023
#0449b0:00000013
#044970:0000000000000023
#044921:0000000000000013
#045961:23
#0459a0:1454
#045920:00540054
#046920:24
#045921:0014
#0459a1:00000024
