This file was generated by Ched 2.7.0.0.
#TITLE ""
#ARTIST ""
#DESIGNER ""
#DIFFICULTY 0
#PLAYLEVEL
#SONGID ""
#WAVE ""
#WAVEOFFSET 0
#JACKET ""
#REQUEST "ticks_per_beat 480"
#00002: 4
#BPM01: 139
#00008: 01
#TIL00: ""
#VOLUME: ""
#HISPEED 00
#MEASUREHS 00
#00418:1414
#0061a:14
#00614:0014
#00718:14
#00712:0014
#0151a:1414
#01514:00140000
#01612:1414
#01618:00140000
#0391a:14
#03918:0014
#03914:00140000
#0481a:00001414
#04812:14140000
#05414:2414
#05514:14
#05618:1414
#05812:1414
#05918:1414
#05914:00140014
#06612:14
#06618:00140000
#06614:0014
#0671a:14
#06714:00140000
#06718:0014
#06712:00000014
#0021a:2414
#00314:1414
#00512:1414
#01212:1414
#0121a:1414
#01418:00140000
#01412:2414
#01912:1414
#01918:00140000
#0201a:1414
#02014:00140000
#01814:00140000
#0181a:1414
#01810:41
#0221a:1414
#0231a:14
#02412:1414
#02512:14
#0261a:1414
#02714:1414
#02718:00140000
#03114:14140000
#0311a:0014
#03212:14140000
#03218:0014
#03012:24140000
#03018:0014
#03010:41
#03518:14140000
#03512:0014
#0361a:14140000
#03614:0014
#0341a:14140000
#03414:0014
#03818:00140000
#03814:0014
#0381f:11
#03812:24
#04314:14
#04312:0014
#04318:00140000
#04214:00140000
#0421a:0014
#04218:14
#04618:00140014
#04614:0014
#04612:24
#0461f:00210000
#04712:14
#0471a:00140014
#04714:0014
#04710:41
#04914:14
#05212:00001414
#0521a:14140000
#05014:00140014
#05018:0014
#0501a:14
#0511a:14
#05112:00140014
#05118:0014
#05318:14
#05718:14
#05710:41
#0651a:14
#06514:00140000
#06518:0014
#01012:26
#01018:0026
#01010:41
#01112:26
#0631a:24
#06312:24
#01318:24
#02818:26
#02812:0026
#02918:26
#06018:26
#06012:0026
#06118:26
#0621a:24
#06212:24
#06219:0024
#06213:0024
#0081a:0034343434343434
#04012:00343434343434340034343434343434
#04112:00343434343434340000000000000000
#0441a:00343434343434340034343434343434
#0451a:00343434343434340000000000000000
#03312:00340000
#0371a:00340000
#03710:41
#01052:16
#01058:0016
#01152:16
#0235a:14
#02552:14
#02858:16
#02852:0016
#02958:16
#04954:64
#04952:0014
#05358:54
#0535a:0014
#05554:14
#05758:14
#06058:16
#06052:0016
#06158:16
#008380:14
#0083a0:0034343434343434
#0093a0:34000034000034002400000000000000
#013380:1434343424000000
#0173a0:14342400
#021320:14342400
#033340:14
#033320:00342400
#037380:14
#0373a0:00342400
#040320:14343434343434340034343434343434
#040340:0034
#041320:34343434343434340000000000000000
#041340:0024
#0443a0:14343434343434340034343434343434
#044380:0034
#0453a0:34343434343434340000000000000000
#045380:0024
#049340:14
#049320:0024
#053380:14
#0533a0:0024
#0633a0:14
#064380:00000024
#063321:14
#064341:00000024
#0683a1:14
#068381:00000024
