This file was generated by Ched 2.7.0.0.
#TITLE ""
#ARTIST ""
#DESIGNER ""
#DIFFICULTY 0
#PLAYLEVEL
#SONGID ""
#WAVE ""
#WAVEOFFSET 0
#JACKET ""
#REQUEST "ticks_per_beat 480"
#00002: 4
#BPM01: 190
#00008: 01
#TIL00: ""
#VOLUME: ""
#HISPEED 00
#MEASUREHS 00
#0011a:14
#00212:14
#00318:14
#00414:14
#0051a:14
#00612:14
#00718:14
#00814:14
#01412:14
#01518:14
#01614:14
#0171a:14
#01710:41
#0181a:14
#01912:14
#02012:14
#02118:14
#02218:14
#02314:14
#02414:14
#0331a:14
#03310:41
#0341a:14
#03514:14
#03614:14
#03718:14
#03818:14
#03912:14
#04012:14
#0411a:14
#04214:14
#04318:14
#04412:14
#04918:14
#04914:0014
#05018:14
#05014:0014
#05312:0016
#05318:26
#05310:41
#05512:1616
#05618:1616
#05712:16
#05718:0016
#05918:1616
#06012:1616
#06118:1616
#06110:41
#06312:0016
#06318:16
#06418:1616
#06512:1616
#06718:0016
#06712:16
#06812:1616
#0771a:14
#0771f:11
#0781a:14
#07914:14
#08014:14
#08118:14
#08218:14
#08312:14
#08412:14
#08814:14
#08918:2616
#0891f:21
#09112:1616
#09218:1616
#09312:16
#09318:0016
#09310:41
#09518:16
#09512:0016
#09618:1616
#09712:1616
#09918:1616
#10012:1616
#10212:0016
#10318:16
#10312:0016
#10418:16
#10412:0026
#0701a:34
#0711a:34
#07412:34
#07512:34
#06910:41
#0093a0:14
#009380:0000000000000034
#011380:34
#0113a0:0000000000000034
#0133a0:24
#0253a0:14
#0263a0:24
#027320:14
#028320:24
#029380:14
#0303a0:24
#031340:14
#032320:24
#0453a0:14
#0463a0:24
#047320:14
#048320:24
#0513a0:1424
#052320:1424
#054380:1626
#058320:1626
#062320:1626
#066380:1626
#069380:16
#0703a0:34
#0713a0:34
#0723a0:24
#073320:16
#074320:34
#075320:34
#076320:24
#0853a0:14
#0863a0:34
#0873a0:24
#090380:1626
#094320:1626
#098320:1626
#101380:1636
#102380:26
