This file was generated by Ched 2.7.0.0.
#TITLE ""
#ARTIST ""
#DESIGNER ""
#DIFFICULTY 0
#PLAYLEVEL
#SONGID ""
#WAVE ""
#WAVEOFFSET 0
#JACKET ""
#REQUEST "ticks_per_beat 480"
#00002: 4
#BPM01: 190
#00008: 01
#TIL00: ""
#VOLUME: ""
#HISPEED 00
#MEASUREHS 00
#00116:13
#0011b:1313000000000013
#00112:0000001300130000
#00117:0023
#00012:0000000000000013
#00217:13
#00212:1313000000000000
#0021b:0000001300000000
#00216:0023
#00317:14
#0031a:00140000
#00314:0014
#00312:00000014
#0041a:14
#00418:00140000
#00416:0014
#00414:00000014
#00419:0000000000000013
#00412:0023
#0041b:00000023
#00517:13
#00512:1313000000000013
#0051b:0000001300130000
#00516:0023
#00616:13
#0061b:1313000000000000
#00612:0000001300000000
#00617:0023
#00715:14
#00712:00140000
#00718:0014
#0071a:00000014
#00812:14000013
#00814:00140000
#00816:0014
#00818:00000014
#0081b:0023
#0091b:1300130000000013
#00918:0013
#00912:0000000000130000
#00915:0000001300000013
#01018:0013000000000000
#01015:0000001300000000
#01017:0000000000130000
#01012:0013000000000000
#0101b:0000001300002300
#01016:00000023
#01112:13130000
#01115:0000000013001313
#0111b:0000000000130013
#01118:0000001300000000
#01217:00000000001300000000000000000000
#01212:00230023
#0131b:13130000
#01318:00001313
#01312:0000000000130013
#01315:0000001300000000
#01417:140000000000541400140000
#01415:00140000
#01412:000000141400
#01418:005400000054000000000000
#01419:005454000000
#0141a:00540000
#01616:14141400
#01612:0000000000000013
#01615:0000000000240000
#0161a:0000000000240000
#01714:00130013
#0171b:2313001300130013
#01719:00130013
#01716:2313
#01710:41
#01816:1313
#0181b:0013001300130000
#01812:00130013
#01817:00130013
#0191b:0013
#01917:00130013
#01916:13
#01912:00130013
#02016:1313
#02017:00130013
#0201b:0000000013000013
#02112:2313001300130013
#02119:00130013
#02114:00130013
#02117:2313
#02217:1313
#02212:0013001300130000
#0221b:00130013
#02216:00130013
#02312:0013
#02316:00130013
#02317:13
#0231b:00130013
#02417:1313
#02416:00130013
#02412:0013
#02512:1300000013000014
#0251b:1300001300000000
#02515:00001300000000000000001300000000
#02518:0000130000131300
#0251a:0000000000000024
#0261a:0014002400000000
#02618:13
#02615:00130000
#02612:0024001400002400
#02616:00000000000000000014000000000000
#0271a:14140000
#02712:14140000
#02718:00001300000000130000000000000000
#02715:0000001313000000
#02812:0013000000001300
#02818:0013000000000000
#0281b:0000131300130000
#02912:1313001300000000
#02917:00130000
#0291b:0000000013130013
#02916:00000013
#03012:1300130000000013
#0301b:0000001313001300
#03016:0000000000130000
#03017:0013000000000000
#03212:14
#0321a:14
#03319:00140000
#03318:0014
#03317:00000014
#0331a:24
#03312:24545454
#03310:41
#03416:14
#03417:00140000
#03418:0014
#03419:00000014
#03412:54545454
#03719:00140000
#0371a:2414
#03718:00000014
#03712:24545454
#03819:14
#03817:00140000
#03818:0014
#03816:00000014
#03812:54545454
#03913:00140000
#03912:2414
#03914:00000014
#0391a:24545454
#04013:14
#04014:0014
#04015:00240000
#04016:00000024
#0401a:54545454
#04112:1300230000132300
#04118:13000013
#0411b:0013000013000000
#04115:0013
#0421b:1300230000132300
#04215:13000013
#04212:0013000013000000
#04218:0013000013000000
#04318:1300230000132300
#04312:13000013
#04315:0013000013000000
#0431b:0013000013000000
#04418:0013000013000013
#04415:1300230000132300
#0441b:13000013
#04412:0013000013000000
#04518:13130013
#0451b:0013
#04512:00130000
#04515:0015
#04615:00130013
#04612:0013
#0461b:00130000
#04616:0015
#0471b:13
#04812:13000023
#04918:0000130000130000
#04915:0000001300000013
#0491b:0000001300000013
#04912:0000000000130000
#05012:0013001300000000
#05017:00131300
#05016:00000013
#05018:00000000000000000053000000000000
#05019:0000000000530000
#0501a:00000000000000000000005300000000
#0501b:00000053
#05015:00000000000000000000000000530000
#05014:0000000000000053
#05013:00000000000000000000000000000053
#05217:12
#0521a:0024
#05212:0024
#0531b:1313
#05312:26130013
#05316:0013
#05310:41
#0541b:1313
#05417:00130000
#05416:1313
#05412:00130013
#05419:0000000000000013
#05512:1300001400240014
#0551b:13
#05515:0013000000001400
#05518:00130000
#0551a:0000002400140024
#05612:0014000024240000
#05618:00130000
#05615:0000001300000000
#05617:14
#0561a:0000000024240000
#05712:1313
#05717:1313
#05812:1313
#05817:1313
#05814:0000001300000013
#05819:0000000000130000
#0581b:00000013
#05816:00000013
#05916:0000130000000023
#0591b:0000130000000023
#05915:00000013
#05914:0000000000230000
#05919:0000000000230000
#05917:2300002300000000
#05912:2300002300000000
#06012:0013000013000000
#06015:0000130000131313
#06018:00000000000013000000001300130000
#0601b:0013
#06112:1313
#0611b:00130013
#06117:0013
#06118:26
#06110:41
#06212:1313
#06216:00130000
#06217:1313
#0621b:00130013
#06214:0000000000000013
#0631b:13
#06312:1300002400140024
#06318:0013000000000000
#06315:00130000
#0631a:0000001400240014
#06317:00000014
#0641a:0014000024240000
#06415:14130000
#06418:0000001300000000
#06412:0000000024240000
#0651b:1313
#06516:1313
#0661b:1313
#06616:1313
#06619:0000001300000013
#06614:0000000000130000
#06612:00000013
#06617:00000013
#06717:0000130000000023
#06712:0000130000000023
#06718:00000013
#06719:0000000000230000
#06714:0000000000230000
#06716:2300002300000000
#0671b:2300002300000000
#0681b:0013000013000000
#06818:0000130000131313
#06815:00000000000013000000001300130000
#06812:0013
#0691b:00130000
#0691a:2413
#06919:00000013
#06916:00140000
#06912:24
#06910:41
#07018:13000013
#0701a:00130000
#07019:0013
#07013:14
#07015:00140000
#0711a:00140000
#07116:24130000
#07115:0013
#07114:00000013
#07217:14
#0721a:00140000
#07213:13000013
#07215:00130000
#07214:0013
#07218:0014
#07312:00140000
#07317:00130000
#07318:0013
#07319:00000013
#07316:24
#07415:14
#07412:00140000
#0741a:13000013
#07418:00130000
#07419:0013
#07414:0014
#07512:00130000
#07513:0013
#07514:00000013
#07516:00140000
#0751a:24
#07615:13
#07612:00130000
#07614:0013
#07616:00140013
#07619:14
#07618:0014
#07816:0013
#07817:0000001300001300
#07812:0000001300000000
#07819:13
#0781b:0013000013000000
#07912:00130000
#07917:0000130000130000
#0791b:0000001300000000
#07919:0013
#07916:1300000000000013
#08016:0000001300001300
#08014:13
#08012:0013000013000000
#08017:0013
#0801b:0000001300000000
#03513:00140000
#03514:0014
#03515:00000014
#0351a:24545454
#03512:24
#03616:14
#03615:00140000
#03614:0014
#03613:00000014
#0361a:54545454
#08116:0000130000000013
#0811b:0000130000130000
#08117:2300001300000000
#08119:0013
#08212:0013000000000013
#08217:0000001300000013
#08219:0013
#0821b:0000000000130000
#08214:23
#08319:00130013
#08313:0000001300000000
#08314:00130013
#08315:0013000000000000
#0831b:13
#0831a:0000000000000013
#08318:0000000000130000
#08312:0013
#08316:23
#08317:0023
#0841b:13
#08412:00333333133333330000000000000000
#08418:0000000013131313
#08415:00000000000000000013001300130013
#08416:23
#08514:00120000
#08516:0012
#08518:26000012
#0871a:1400002400140024
#08712:1400001400240014
#08715:0013000000000000
#08718:00130000
#08615:0012000000000000
#0861b:0012000000000000
#08614:22120000
#0861a:22120000
#08619:0000001200000000
#08613:0000001200000000
#08618:0000000000000013
#08814:0013130000000000
#08819:0013130000000000
#08818:0000001300000000
#08815:00000000000000130000000066000000
#0881a:0000000024240000
#08812:0000000024240000
#09017:1300001400000014
#0901a:00001414
#09015:0000000000140000
#09012:13001414
#0901b:0013000000000000
#09016:0013000000000000
#09117:0000142400001424
#09112:24000000001400000000000000002400
#0911a:2400000000240000
#09115:0000000000240000
#0921b:0013000013000000
#09218:00000000130000000000001300000000
#09212:0000131300130000
#09215:0013
#09214:00000013
#0921a:00000000000000000000000000130000
#09216:0000000000000013
#09418:0000000000000013
#0941b:13131313
#09412:0013000013000000
#09416:1300000000130000
#09512:1300001400240014
#0951b:13
#09515:0013000000001400
#09518:00130000
#0951a:0000002400140024
#09517:0014
#09612:0014000024240000
#09618:00130000
#09615:0000001300000000
#09617:14
#0961a:0000000024240000
#08912:1313
#08917:1313
#0891b:0013000000130000
#08916:0013000000130000
#0891f:21
#09312:26131313
#0931b:1300000000130000
#09317:0013000013000000
#09310:41
#09815:0000001400000014
#09812:0013000014001400
#09817:0013000000140000
#0981a:00001414
#0981b:13
#09816:13
#09915:0000142400001424
#0991a:24000000001400000000000000002400
#09912:2400000000240000
#09917:0000000000240000
#10012:0013000013000000
#10015:00000000130000000000001300000000
#1001b:0000131300130000
#10018:0013
#10013:00000000000000000000000000130000
#10017:0000000000000013
#10019:00000013
#0971b:1313
#09716:1313
#09712:0013000000130000
#09717:0013000000130000
#10112:14000014
#1011a:00141400
#10118:26
#10212:1400000000140000
#1021a:00140000
#10214:0000001400000000
#10217:0000000000000014
#10218:0024
#10317:0000142400001424
#10312:24000000001400000000000000002400
#1031a:0000000000240000
#10315:0000000000240000
#1041b:0013000000000000
#10412:0000130000240000
#10415:0024
#10417:0000000000240000
#10416:00240000
#0771b:00130000
#07716:0000130000130000
#07712:2400001300000000
#07714:0013
#07717:2300000000000013
#0771f:11
#03112:23
#03117:23
#03116:0023
#05112:53
#0015b:0063000000000000
#00252:0053000000000000
#0035a:00240000
#00357:54
#00354:0064
#00352:00000024
#00552:0053000000000000
#0065b:0063000000000000
#00755:64
#00752:00240000
#00758:0054
#0075a:00000024
#01055:0000005300000000
#0105b:0000001300000000
#01052:0013000000000000
#00852:00000013
#0095b:0000000000000013
#0115b:0000000000000053
#01155:0000000000000013
#01257:00000000002300000000000000000000
#01457:00000014
#0165a:0000000000140000
#01655:0000000000140000
#01852:00000063
#01857:00000063
#0195b:1353
#01957:00000023
#01956:5313
#01952:00230000
#0205b:13
#02056:6363
#0225b:00000053
#02256:00000053
#02352:1363
#02356:00000023
#02357:6313
#0235b:00230000
#02457:5353
#02452:13
#02552:0000000000000014
#0265a:0014006400004400
#02652:0000001400000000
#02656:00000000000000000024000000000000
#02752:0000000000000014
#0275a:0000000000000014
#0285b:0000001300000000
#02852:00000013
#02957:00130000
#02956:00000013
#03052:00130000
#0305b:00000013
#03157:53
#03156:0063
#03252:54
#0325a:54
#0415b:0023000000000000
#04158:63
#04255:53
#04252:0023000000000000
#04352:63
#04355:0023000000000000
#0455b:0013
#04555:0055
#04552:00230000
#04652:0013
#0465b:00230000
#04656:0065
#0475b:53
#04757:0013
#04852:63
#04856:0013
#04952:13
#0495b:1300000000000053
#05257:52
#0525a:0014
#05252:0014
#0535b:5353
#05357:00130013
#0545b:5353
#05457:00230000
#05452:00130013
#05552:0000001400000014
#0555a:0000000000140064
#05657:24
#05756:00130013
#0575b:00130013
#05752:6363
#05757:6363
#05852:63
#05857:63
#0585b:00130000
#05956:0000000000000013
#05959:0000000000130000
#05952:1300001300000000
#0595b:0000000000000063
#05957:13
#06152:6363
#06156:00130013
#06252:6363
#06256:00230000
#0625b:00130013
#0635a:0000001400000014
#06352:0000000000140054
#06455:24
#0655b:5353
#06556:5353
#06557:00130013
#06552:00130013
#0665b:53
#06656:53
#06652:00130000
#06757:0000000000000013
#06754:0000000000130000
#0675b:1300001300000000
#06752:0000000000000053
#06756:13
#0695a:44
#06956:00240000
#06952:54
#0715a:00240000
#07156:54
#07257:54
#0725a:00240000
#07258:0054
#07053:54
#07055:00240000
#07352:00240000
#07356:64
#07455:64
#07452:00240000
#07454:0064
#07556:00240000
#0755a:64
#07659:64
#07656:00240000
#07658:0064
#0765a:00000014
#07752:14
#07856:0053
#07857:00000053
#08056:00000063
#08057:0063
#0795b:13
#08152:13
#0835b:13
#08352:0013
#08452:00230000
#0845b:13
#08456:53
#08558:16
#08655:0022000000000000
#0865b:0022000000000000
#08654:52520000
#0865a:52520000
#08659:0000002200000000
#08653:0000002200000000
#08752:0000001400000014
#0875a:0000000000140000
#09552:0000001400000014
#0955a:0000000000140064
#09657:24
#09157:0000001400000014
#09155:0000000000140000
#09152:1400000000000054
#0915a:14
#08952:63136313
#08957:63136313
#0895b:0023000000230000
#08956:0023000000230000
#09052:63130000
#09057:63
#0905b:0023000000000000
#09056:0023000000000000
#0935b:5300130000230000
#09357:0023000063001300
#09352:16
#09452:0023000063001300
#09456:5300130000230000
#0975b:53135313
#09756:53135313
#09752:0023000000230000
#09757:0023000000230000
#0985b:53130000
#09856:53
#09852:0023000000000000
#09857:0023000000000000
#09955:0000001400000014
#09957:0000000000140000
#0995a:1400000000000064
#09952:14
#10158:16
#10156:0014
#10152:64
#1015a:0054
#10256:14
#10252:64
#10357:0000001400000014
#10355:0000000000140000
#10352:1400000000000054
#10456:00640000
#10455:0014
#10457:0000000000140000
#0445b:53
#04458:0023000000000000
#05152:13
#0013b0:0013000000000000
#001370:0000002300000000
#002320:0013000000000000
#002360:0000002300000000
#0023b0:00001323
#002321:00000013
#003321:23
#003370:14
#0033a0:00540000
#003380:0024
#003341:0014
#003321:00000054
#004351:24
#005321:0013000000000000
#005361:0000002300000000
#0063b1:0013000000000000
#006371:0000002300000000
#006321:00001323
#0063b0:00000013
#0073b0:23
#007351:14
#007321:00540000
#007341:0024
#007380:0014
#0073a0:00000054
#008370:24
#009350:13230000
#010350:0000001300000000
#010320:0000000000230000
#011380:13230000
#0113b0:0000000000000013
#012370:00000000005300000000000000000000
#0123b0:00000023
#013350:13230000
#015320:1434
#016320:34342400
#0153a1:14240000
#015381:00001424
#018320:00000013
#019360:3323
#019320:00530000
#018371:00000013
#0193b1:23
#0193b1:0013
#019371:00000053
#0203b1:23
#020360:13
#020320:00230000
#020360:0013
#020320:00000023
#0223b0:00000013
#023370:3323
#0233b0:00530000
#022361:00000013
#023321:23
#023321:0013
#023361:00000053
#024321:23
#024370:13
#0243b0:00230000
#024370:0013
#0243b0:00000023
#0263a0:0000001400002400
#026360:00000000000000000054000000000000
#0273a0:0000000000140024
#027321:0000000000140024
#028351:0000001300230000
#028381:00000013
#029381:23
#031371:13
#0313a1:0034
#0323a1:34
#032381:0022
#031360:0013
#032320:34
#032360:0022
#041380:13230000
#0413b0:0053000000000000
#042350:13230000
#042320:0053000000000000
#043320:13230000
#043350:0053000000000000
#0443b0:13230000
#044380:0053000000000000
#045320:13530053
#045350:0035
#046320:23
#0463b1:13530053
#046361:0035
#0473b1:33
#047371:0023
#047320:13
#048320:33
#048360:0023
#0483b1:13
#0493b1:23
#048320:00000013
#049320:23
#0493b0:0000000000000013
#050370:0023000000000000
#051370:120000000000000000000000000000000000000000000052005200000052005200000052005200000052005200000052005200000000000000000052005200000000000000000052005200000000000000000052005200000000000000000000
#051360:00000000343434000000340000000000
#051350:00000000000000360000000036000000
#051340:0000000038000038
#052370:32
#0523a0:00342400
#0533b0:13
#053370:00230000
#0533b0:0013
#053370:00000023
#0543b0:1333
#054370:00530023
#0553a0:0000000000000014
#056370:54
#0563a0:0024000000000000
#057320:13
#057360:00230000
#057371:13
#0573b1:00230000
#057321:0013
#057361:00000023
#057370:0013
#0573b0:00000023
#058320:13
#058360:00230000
#058371:13
#0583b1:00230000
#0593b1:0000000000000013
#060371:0023000000000000
#061321:13
#061361:00230000
#061321:0013
#061361:00000023
#062321:1333
#062361:00530023
#063321:0000000000000014
#064351:54
#064321:0024000000000000
#0653b1:13
#065371:00230000
#065360:13
#065320:00230000
#0653b0:0013
#065370:00000023
#065361:0013
#065321:00000023
#0663b1:13
#066371:00230000
#066360:13
#066320:00230000
#067320:0000000000000013
#068360:0023000000000000
#069320:14
#069360:00540000
#070330:34
#070350:00540000
#071320:24
#071361:14
#0713a1:00540000
#072371:34
#0723a1:00540000
#072381:0034
#0733a1:24
#073360:14
#073320:00540000
#074350:34
#074320:00540000
#074340:0034
#075320:24
#0753a1:14
#075361:00540000
#076391:34
#076361:00540000
#076381:0034
#0763a1:00000024
#077371:0000001300000000
#0773b1:0000000000230000
#077321:0000000000000013
#078361:0023000000000000
#078361:0013
#078321:00000023
#078370:00000013
#0793b0:23
#079360:0000001300000000
#079320:0000000000230000
#0793b0:0000000000000013
#080370:0023000000000000
#080370:0013
#0803b0:00000023
#080361:00000013
#081321:23
#081321:0000001300230000
#0813b1:0000000000000013
#0823b1:0023000000000000
#082321:0000001300230000
#084361:13
#084321:00333333333333330000000000000000
#084351:0023
#086341:12522200
#086351:0052000000000000
#086331:0000005200000000
#0863a0:12522200
#0863b0:0052000000000000
#086390:0000005200000000
#089320:13230000
#089360:0053000000000000
#089371:13230000
#0893b1:0053000000000000
#089321:00001323
#089361:0000000000530000
#089370:00001323
#0893b0:0000000000530000
#090320:13230000
#090360:0053000000000000
#090371:13230000
#0903b1:0053000000000000
#091321:0000000000000014
#092361:0024000000000000
#0933b1:13230000
#093371:0053000000000000
#093371:00001323
#0933b1:0000000000530000
#094361:13230000
#094321:0053000000000000
#094321:00001323
#094361:0000000000530000
#0953a1:0000000000000014
#096371:54
#0963a1:0024000000000000
#0973b1:13230000
#097371:0053000000000000
#097360:13230000
#097320:0053000000000000
#0973b0:00001323
#097370:0000000000530000
#097361:00001323
#097321:0000000000530000
#0983b1:13230000
#098371:0053000000000000
#098360:13230000
#098320:0053000000000000
#0993a0:0000000000000014
#100360:0024000000000000
#101320:14
#101360:0024
#1013a1:0014
#102361:24
#102320:14
#102360:00240000
#103320:0000000000000014
#104360:0024000000000000
#104360:00140000
#1043a0:0024
#014970:1424
#0149a0:00540000
#033920:001400000000000000000000000000000000000000000000000000000000000000000000000000000000000000000000000000000000000000000000000000000000000000000000000000000000000000000000000000000000000000000000000000000000000000000000000000000000000000000000000000000000000000000000000000000000000000000000000000000000000000000000000000000000000000000000000000000000000000000000000000000000000000000000000000000000000000000000000000000000000000000000000000000000000000000000000000000000000000000000000000000000000000000000000000000000000000000000000000000000000000000000000000000000000000000000000000000000000000000000000000000000000000000000000000000000000000000000000000000000000000000000000000000000000000000000000000000000000000000000000000000000000000000000000000000000000000000000000000000000000000000000000000000000000000000000000000000000000000000000000000000000000000000000000000000000000000000000000000000000000000000000000000000000000000000000000000000000000000000000000000000000000000000000000000000000000000000000000000000000000000000000000000000000000000000000000000000000000000000000000000000000000000000000000000000000000000000000000000000000000000000000000000000000000000000000000000000000000000000000000000000000000000000000000000000000000000000000000000000000000000000000000000000000000000000000000000000000000000000000000000000000000000000000000000000000000000000000000000000000000000000000000000000000000000000000000000000000000000000000000000000000000000000000000000000000000000000000000000000000000000000000000000000000000000000000000000000000000000000000000000000000000000000000000000000000000000000000000000000000000000000000000000000000000000000000000000000000000000000000000000000000000000000000000000000000000000000000000000000000000000000000000000000000000000000000000000000000000000000000000000000000000000000000000000000000000000000000000000000000000000000000000000000000000000000000000000000000000000000000
#034920:000000000000000000000000000000000000000000000000000000000000000000000000000000000000000000000000000000000000000000000000000000000000000000000000000000000000000000000000000000000000000000000000000000000000000000000000000000000000000000000000000000000000000000000000000000000000000000000000000000000000000000000000000000000000000000000000000000000000000000000000000000000000000000000000000000000000000000000000000000000000000000000000000000000000000000000000000000000000000000000000000000000000000000000000000000000000000000000000000000000000000000000000000000000000000000000000000000000000000000000000000000000000000000000000000000000000000000000000000000000000000000000000000000000000000000000000000000000000000000000000000000000000000000000000000000000000000000000000000000000000000000000000000000000000000000000000000000000000000000000000000000000000000000000000000000000000000000000000000000000000000000000000000000000000000000000000000000000000000000000000000000000000000000000000000000000000000000000000000000000000000000000000000000000000000000000000000000000000000000000000000000000000000000000000000000000000000000000000000000000000000000000000000000000000000000000000000000000000000000000000000000000000000000000000000000000000000000000000000000000000000000000000000000000000000000000000000000000000000000000000000000000000000000000000000000000000000000000000000000000000000000000000000000000000000000000000000000000000000000000000000000000000000000000000000000000000000000000000000000000000000000000000000000000000000000000000000000000000000000000000000000000000000000000000000000000000000000000000000000000000000000000000000000000000000000000000000000000000000000000000000000000000000000000000000000000000000000000000000000000000000000000000000000000000000000000000000000000000000000000000000000000000000000000000000000000000000000000000000000000000000000000000000000000000000000000000000000000000000000000000000000000000000000000000000000000000000000000000000000000000000000000000000000000000000000000000000000000000000000000000000000000000000000000000000000000000000000000000000000000000000000000000000000000000000000000000000000000000000000000000000000000000000000000000000000000000000000000000000000000000000000000000000000000000000000000000000000000000000000000000000000000000000000000000000000000000000000000000000000000000000000000000000000000000000000000000000000000000000000000000000000000000000000000000000000000000000000000000000000000000000000000000000000000000000000000000000000000000000000000000000000000000000000000000000000000000000000000000000000000000000000000000000000000000000000000000000000000000000000000000000000000000000000000000000000000000000000000000000000000000000000000000000000000000000000000000000000000000000000000000000000000000000000000000000000000000000000000000000000000000000000000000000000000000000000000000000000000000000000005454240000000000000000000000000000000000000000000000000000000000000000000000000000000000000000000000000000000000000000000000000000000000000000000000000000000000000000000000000000000000000000000000000000000000000000000000000000000000000000000000000000000000000000000000000000000000000000000000000000000000000000000000000000000000000000000000000000000000000000000000000000000000000000000000000000000000000000000000000000000000000000000000000000000000000000000000000000000000000000000000000000000000000000000000000000000000000000000000000000000000000000000000000000000000000000000000000000000000000000000000000000000000000000000000000000000000000000000000000000000000000000000000000000000000000000000000000000000000000000000000000000000000000000000000000000000000000000000000000000000000000000000000000000000000000000000000000000000000000000000000000000000000000000000000000000000000000000000000000000000000000000000000000000000000000000000000000000000000000000000000
#0359a0:001400000000000000000000000000000000000000000000000000000000000000000000000000000000000000000000000000000000000000000000000000000000000000000000000000000000000000000000000000000000000000000000000000000000000000000000000000000000000000000000000000000000000000000000000000000000000000000000000000000000000000000000000000000000000000000000000000000000000000000000000000000000000000000000000000000000000000000000000000000000000000000000000000000000000000000000000000000000000000000000000000000000000000000000000000000000000000000000000000000000000000000000000000000000000000000000000000000000000000000000000000000000000000000000000000000000000000000000000000000000000000000000000000000000000000000000000000000000000000000000000000000000000000000000000000000000000000000000000000000000000000000000000000000000000000000000000000000000000000000000000000000000000000000000000000000000000000000000000000000000000000000000000000000000000000000000000000000000000000000000000000000000000000000000000000000000000000000000000000000000000000000000000000000000000000000000000000000000000000000000000000000000000000000000000000000000000000000000000000000000000000000000000000000000000000000000000000000000000000000000000000000000000000000000000000000000000000000000000000000000000000000000000000000000000000000000000000000000000000000000000000000000000000000000000000000000000000000000000000000000000000000000000000000000000000000000000000000000000000000000000000000000000000000000000000000000000000000000000000000000000000000000000000000000000000000000000000000000000000000000000000000000000000000000000000000000000000000000000000000000000000000000000000000000000000000000000000000000000000000000000000000000000000000000000000000000000000000000000000000000000000000000000000000000000000000000000000000000000000000000000000000000000000000000000000000000000000000000000000000000000000000000000000000000000000000000000000000000000000000000
#0369a0:000000000000000000000000000000000000000000000000000000000000000000000000000000000000000000000000000000000000000000000000000000000000000000000000000000000000000000000000000000000000000000000000000000000000000000000000000000000000000000000000000000000000000000000000000000000000000000000000000000000000000000000000000000000000000000000000000000000000000000000000000000000000000000000000000000000000000000000000000000000000000000000000000000000000000000000000000000000000000000000000000000000000000000000000000000000000000000000000000000000000000000000000000000000000000000000000000000000000000000000000000000000000000000000000000000000000000000000000000000000000000000000000000000000000000000000000000000000000000000000000000000000000000000000000000000000000000000000000000000000000000000000000000000000000000000000000000000000000000000000000000000000000000000000000000000000000000000000000000000000000000000000000000000000000000000000000000000000000000000000000000000000000000000000000000000000000000000000000000000000000000000000000000000000000000000000000000000000000000000000000000000000000000000000000000000000000000000000000000000000000000000000000000000000000000000000000000000000000000000000000000000000000000000000000000000000000000000000000000000000000000000000000000000000000000000000000000000000000000000000000000000000000000000000000000000000000000000000000000000000000000000000000000000000000000000000000000000000000000000000000000000000000000000000000000000000000000000000000000000000000000000000000000000000000000000000000000000000000000000000000000000000000000000000000000000000000000000000000000000000000000000000000000000000000000000000000000000000000000000000000000000000000000000000000000000000000000000000000000000000000000000000000000000000000000000000000000000000000000000000000000000000000000000000000000000000000000000000000000000000000000000000000000000000000000000000000000000000000000000000000000000000000000000000000000000000000000000000000000000000000000000000000000000000000000000000000000000000000000000000000000000000000000000000000000000000000000000000000000000000000000000000000000000000000000000000000000000000000000000000000000000000000000000000000000000000000000000000000000000000000000000000000000000000000000000000000000000000000000000000000000000000000000000000000000000000000000000000000000000000000000000000000000000000000000000000000000000000000000000000000000000000000000000000000000000000000000000000000000000000000000000000000000000000000000000000000000000000000000000000000000000000000000000000000000000000000000000000000000000000000000000000000000000000000000000000000000000000000000000000000000000000000000000000000000000000000000000000000000000000000000000000000000000000000000000000000000000000000000000000000000000000000000000000000000000000000000000000000000000000000000000000000000000000000000000000000000000000000000000005454240000000000000000000000000000000000000000000000000000000000000000000000000000000000000000000000000000000000000000000000000000000000000000000000000000000000000000000000000000000000000000000000000000000000000000000000000000000000000000000000000000000000000000000000000000000000000000000000000000000000000000000000000000000000000000000000000000000000000000000000000000000000000000000000000000000000000000000000000000000000000000000000000000000000000000000000000000000000000000000000000000000000000000000000000000000000000000000000000000000000000000000000000000000000000000000000000000000000000000000000000000000000000000000000000000000000000000000000000000000000000000000000000000000000000000000000000000000000000000000000000000000000000000000000000000000000000000000000000000000000000000000000000000000000000000000000000000000000000000000000000000000000000000000000000000000000000000000000000000000000000000000000000000000000000000000000000000000000000000000000
#037920:001400000000000000000000000000000000000000000000000000000000000000000000000000000000000000000000000000000000000000000000000000000000000000000000000000000000000000000000000000000000000000000000000000000000000000000000000000000000000000000000000000000000000000000000000000000000000000000000000000000000000000000000000000000000000000000000000000000000000000000000000000000000000000000000000000000000000000000000000000000000000000000000000000000000000000000000000000000000000000000000000000000000000000000000000000000000000000000000000000000000000000000000000000000000000000000000000000000000000000000000000000000000000000000000000000000000000000000000000000000000000000000000000000000000000000000000000000000000000000000000000000000000000000000000000000000000000000000000000000000000000000000000000000000000000000000000000000000000000000000000000000000000000000000000000000000000000000000000000000000000000000000000000000000000000000000000000000000000000000000000000000000000000000000000000000000000000000000000000000000000000000000000000000000000000000000000000000000000000000000000000000000000000000000000000000000000000000000000000000000000000000000000000000000000000000000000000000000000000000000000000000000000000000000000000000000000000000000000000000000000000000000000000000000000000000000000000000000000000000000000000000000000000000000000000000000000000000000000000000000000000000000000000000000000000000000000000000000000000000000000000000000000000000000000000000000000000000000000000000000000000000000000000000000000000000000000000000000000000000000000000000000000000000000000000000000000000000000000000000000000000000000000000000000000000000000000000000000000000000000000000000000000000000000000000000000000000000000000000000000000000000000000000000000000000000000000000000000000000000000000000000000000000000000000000000000000000000000000000000000000000000000000000000000000000000000000000000000000000000000000
#038920:000000000000000000000000000000000000000000000000000000000000000000000000000000000000000000000000000000000000000000000000000000000000000000000000000000000000000000000000000000000000000000000000000000000000000000000000000000000000000000000000000000000000000000000000000000000000000000000000000000000000000000000000000000000000000000000000000000000000000000000000000000000000000000000000000000000000000000000000000000000000000000000000000000000000000000000000000000000000000000000000000000000000000000000000000000000000000000000000000000000000000000000000000000000000000000000000000000000000000000000000000000000000000000000000000000000000000000000000000000000000000000000000000000000000000000000000000000000000000000000000000000000000000000000000000000000000000000000000000000000000000000000000000000000000000000000000000000000000000000000000000000000000000000000000000000000000000000000000000000000000000000000000000000000000000000000000000000000000000000000000000000000000000000000000000000000000000000000000000000000000000000000000000000000000000000000000000000000000000000000000000000000000000000000000000000000000000000000000000000000000000000000000000000000000000000000000000000000000000000000000000000000000000000000000000000000000000000000000000000000000000000000000000000000000000000000000000000000000000000000000000000000000000000000000000000000000000000000000000000000000000000000000000000000000000000000000000000000000000000000000000000000000000000000000000000000000000000000000000000000000000000000000000000000000000000000000000000000000000000000000000000000000000000000000000000000000000000000000000000000000000000000000000000000000000000000000000000000000000000000000000000000000000000000000000000000000000000000000000000000000000000000000000000000000000000000000000000000000000000000000000000000000000000000000000000000000000000000000000000000000000000000000000000000000000000000000000000000000000000000000000000000000000000000000000000000000000000000000000000000000000000000000000000000000000000000000000000000000000000000000000000000000000000000000000000000000000000000000000000000000000000000000000000000000000000000000000000000000000000000000000000000000000000000000000000000000000000000000000000000000000000000000000000000000000000000000000000000000000000000000000000000000000000000000000000000000000000000000000000000000000000000000000000000000000000000000000000000000000000000000000000000000000000000000000000000000000000000000000000000000000000000000000000000000000000000000000000000000000000000000000000000000000000000000000000000000000000000000000000000000000000000000000000000000000000000000000000000000000000000000000000000000000000000000000000000000000000000000000000000000000000000000000000000000000000000000000000000000000000000000000000000000000000000000000000000000000000000000000000000000000000000000000000000000000000000000000000000000000000005454240000000000000000000000000000000000000000000000000000000000000000000000000000000000000000000000000000000000000000000000000000000000000000000000000000000000000000000000000000000000000000000000000000000000000000000000000000000000000000000000000000000000000000000000000000000000000000000000000000000000000000000000000000000000000000000000000000000000000000000000000000000000000000000000000000000000000000000000000000000000000000000000000000000000000000000000000000000000000000000000000000000000000000000000000000000000000000000000000000000000000000000000000000000000000000000000000000000000000000000000000000000000000000000000000000000000000000000000000000000000000000000000000000000000000000000000000000000000000000000000000000000000000000000000000000000000000000000000000000000000000000000000000000000000000000000000000000000000000000000000000000000000000000000000000000000000000000000000000000000000000000000000000000000000000000000000000000000000000000000000
#0399a0:001400000000000000000000000000000000000000000000000000000000000000000000000000000000000000000000000000000000000000000000000000000000000000000000000000000000000000000000000000000000000000000000000000000000000000000000000000000000000000000000000000000000000000000000000000000000000000000000000000000000000000000000000000000000000000000000000000000000000000000000000000000000000000000000000000000000000000000000000000000000000000000000000000000000000000000000000000000000000000000000000000000000000000000000000000000000000000000000000000000000000000000000000000000000000000000000000000000000000000000000000000000000000000000000000000000000000000000000000000000000000000000000000000000000000000000000000000000000000000000000000000000000000000000000000000000000000000000000000000000000000000000000000000000000000000000000000000000000000000000000000000000000000000000000000000000000000000000000000000000000000000000000000000000000000000000000000000000000000000000000000000000000000000000000000000000000000000000000000000000000000000000000000000000000000000000000000000000000000000000000000000000000000000000000000000000000000000000000000000000000000000000000000000000000000000000000000000000000000000000000000000000000000000000000000000000000000000000000000000000000000000000000000000000000000000000000000000000000000000000000000000000000000000000000000000000000000000000000000000000000000000000000000000000000000000000000000000000000000000000000000000000000000000000000000000000000000000000000000000000000000000000000000000000000000000000000000000000000000000000000000000000000000000000000000000000000000000000000000000000000000000000000000000000000000000000000000000000000000000000000000000000000000000000000000000000000000000000000000000000000000000000000000000000000000000000000000000000000000000000000000000000000000000000000000000000000000000000000000000000000000000000000000000000000000000000000000000000000000000000000
#0409a0:000000000000000000000000000000000000000000000000000000000000000000000000000000000000000000000000000000000000000000000000000000000000000000000000000000000000000000000000000000000000000000000000000000000000000000000000000000000000000000000000000000000000000000000000000000000000000000000000000000000000000000000000000000000000000000000000000000000000000000000000000000000000000000000000000000000000000000000000000000000000000000000000000000000000000000000000000000000000000000000000000000000000000000000000000000000000000000000000000000000000000000000000000000000000000000000000000000000000000000000000000000000000000000000000000000000000000000000000000000000000000000000000000000000000000000000000000000000000000000000000000000000000000000000000000000000000000000000000000000000000000000000000000000000000000000000000000000000000000000000000000000000000000000000000000000000000000000000000000000000000000000000000000000000000000000000000000000000000000000000000000000000000000000000000000000000000000000000000000000000000000000000000000000000000000000000000000000000000000000000000000000000000000000000000000000000000000000000000000000000000000000000000000000000000000000000000000000000000000000000000000000000000000000000000000000000000000000000000000000000000000000000000000000000000000000000000000000000000000000000000000000000000000000000000000000000000000000000000000000000000000000000000000000000000000000000000000000000000000000000000000000000000000000000000000000000000000000000000000000000000000000000000000000000000000000000000000000000000000000000000000000000000000000000000000000000000000000000000000000000000000000000000000000000000000000000000000000000000000000000000000000000000000000000000000000000000000000000000000000000000000000000000000000000000000000000000000000000000000000000000000000000000000000000000000000000000000000000000000000000000000000000000000000000000000000000000000000000000000000000000000000000000000000000000000000000000000000000000000000000000000000000000000000000000000000000000000000000000000000000000000000000000000000000000000000000000000000000000000000000000000000000000000000000000000000000000000000000000000000000000000000000000000000000000000000000000000000000000000000000000000000000000000000000000000000000000000000000000000000000000000000000000000000000000000000000000000000000000000000000000000000000000000000000000000000000000000000000000000000000000000000000000000000000000000000000000000000000000000000000000000000000000000000000000000000000000000000000000000000000000000000000000000000000000000000000000000000000000000000000000000000000000000000000000000000000000000000000000000000000000000000000000000000000000000000000000000000000000000000000000000000000000000000000000000000000000000000000000000000000000000000000000000000000000000000000000000000000000000000000000000000000000000000000000000000000000000000000000000000005454240000000000000000000000000000000000000000000000000000000000000000000000000000000000000000000000000000000000000000000000000000000000000000000000000000000000000000000000000000000000000000000000000000000000000000000000000000000000000000000000000000000000000000000000000000000000000000000000000000000000000000000000000000000000000000000000000000000000000000000000000000000000000000000000000000000000000000000000000000000000000000000000000000000000000000000000000000000000000000000000000000000000000000000000000000000000000000000000000000000000000000000000000000000000000000000000000000000000000000000000000000000000000000000000000000000000000000000000000000000000000000000000000000000000000000000000000000000000000000000000000000000000000000000000000000000000000000000000000000000000000000000000000000000000000000000000000000000000000000000000000000000000000000000000000000000000000000000000000000000000000000000000000000000000000000000000000000000000000000000000
#050970:0013
#0509b0:00000023
#050961:00000013
#051921:23
