This file was generated by Ched 2.7.0.0.
#TITLE ""
#ARTIST ""
#DESIGNER ""
#DIFFICULTY 0
#PLAYLEVEL
#SONGID ""
#WAVE ""
#WAVEOFFSET 0
#JACKET ""
#REQUEST "ticks_per_beat 480"
#00002: 4
#BPM01: 190
#00008: 01
#TIL00: ""
#VOLUME: ""
#HISPEED 00
#MEASUREHS 00
#00112:0013000000000013
#00118:13
#0011b:0000001300130000
#00115:0013
#00012:0000000000000013
#00218:13000013
#00212:0013000000000000
#0021b:0000001300000000
#00215:0013
#0091a:0000000000000014
#00912:1300000000130000
#00918:1300001300000000
#0091b:00130000
#00915:0013
#01012:0014000000002300
#0101a:0000001400000000
#01015:0000000000130000
#01018:00000023
#0111a:0000000000000014
#0111b:1300000000130000
#01115:1300001300001300
#01112:00130000
#01118:0013
#01216:00000000001400000000000000000000
#02512:13000013
#02515:0013000000130000
#02518:00131300
#0251b:0000001300000000
#0251a:0000000000000024
#02812:0014000000001300
#02818:00140013
#02814:0000001400000000
#0281b:0000000000130000
#02915:0013000000001300
#02912:0000001300000000
#0291b:1300000013130000
#02918:0000130000000013
#03012:1300000013130000
#0301b:0000001300000000
#03015:0000130000000013
#03018:0013000000001300
#03216:14
#03215:0000000000000013
#0411b:00130013
#04112:1313
#04115:00130023
#04118:1300000000130000
#04518:0014
#04514:0014
#0451a:24
#04512:24
#04912:0000140000000014
#0491a:0000001400000000
#04916:0000000000140000
#05012:0014
#05016:0014000000005400
#0501a:0000001400000000
#05013:00000000000000000054000000000054
#05014:0000000000540054
#05015:00000000000000000000005400540000
#10112:14
#1011a:0014
#10212:1400000000000014
#1021a:0000001400140000
#10215:0014
#10318:14
#10314:00140000
#10316:0000000000240000
#1031a:0000002400000000
#10312:0000000000000024
#00312:14
#00315:0014
#0041a:00140000
#00416:0014
#00412:00000014
#00418:0000000000000013
#00512:13
#00518:0013000000000013
#00515:0000001300130000
#0051b:0013
#00612:13000013
#00618:0013000000000000
#00615:0000001300000000
#0061b:0013
#0071a:14
#00717:0014
#00812:00140000
#00816:0014
#0081a:00000014
#01312:1300000000130000
#01318:1300001300001300
#0131b:00130000
#01315:0000000013000013
#01418:0000000013130000
#01415:0000000000001313
#01518:13
#01612:0000000014240013
#0161a:0000000014240000
#01718:0013000000000000
#01715:0000001313000000
#0171b:0000000000130000
#01712:2300000000000013
#01710:41
#01812:13000013
#01818:0013000000001300
#01815:0000001313000000
#0181b:0013
#01915:13
#0191b:13
#01918:0013
#01912:0013
#0201b:1300000000000013
#02015:13
#0201a:00130000
#02014:00130000
#02012:00000013
#02018:00000013
#02013:0013
#02019:0013
#02115:0013000000000000
#02118:0000001313000000
#02112:0000000000130000
#0211b:2300000000000013
#0221b:13
#02215:0013000000000000
#02218:0000001313000013
#02212:0000000000130013
#02318:13
#02312:13
#02315:0013
#0231b:0013
#02412:13
#02418:13
#02413:00130000
#02419:00130000
#0241b:00000013
#02415:00000013
#0241a:0013
#02414:0013
#02615:00000000000000000014000000000000
#02616:0024000000000000
#02612:0000002400000000
#0271b:13
#02718:0013000000000000
#02715:00131300
#02712:0000001300000000
#0331b:13
#03315:00130000
#03318:0000001300000013
#03310:41
#03412:13
#03418:00130000
#03415:0000001300000013
#0351b:13
#03515:00131300
#03518:0000001300000013
#03612:13
#03618:00131300
#03615:0000001300000013
#0371b:13
#03715:00131300
#03718:0000001300000013
#03812:13
#03818:00131300
#03815:0000001300000013
#0391b:13
#03915:00131300
#03918:0000001300000013
#04012:13
#04018:00131300
#04015:0000001300000000
#0421b:00130013
#04212:1313
#04215:00130023
#04218:1300000000130000
#04312:00130013
#0431b:1313
#04318:00130023
#04315:1300000000130000
#04412:00130013
#0441b:1313
#04418:00130023
#04415:1300000000130000
#04614:0014
#04618:0014
#04612:24
#0481a:14
#04812:14
#04818:0024
#05317:00140014
#0531a:2414
#05310:41
#0541a:14
#05416:00140000
#05415:0000000000000013
#05518:13
#05515:0013000000000000
#0551a:0000001400000024
#05512:0000000000140000
#05617:00140000000000000000000000000000
#05612:0000000024240000
#0561a:0000000024240000
#05715:00140014
#05712:1414
#05812:14
#0581b:0000001300000000
#05818:0000000013000013
#05815:0000000000130000
#05914:0000001400000000
#05918:0000000000140000
#05912:1300000000000024
#0591b:00130000
#06015:00140000000000000000000000000000
#06019:0013
#06014:0000000000130000
#06115:00140014
#06112:2414
#06110:41
#06212:14
#06216:00140000
#06218:0000000000000013
#06315:13
#06318:0013000000000000
#06312:0000001400000024
#0631a:0000000000140000
#06415:00140000000000000000000000000000
#0641a:0000000024240000
#06412:0000000024240000
#06517:00140014
#0651a:1414
#0661a:14
#06612:0000001300000000
#06615:0000000013000013
#06618:0000000000130000
#06718:0000001400000000
#06714:0000000000140000
#0671b:13
#06712:00130000
#0671a:0000000000000024
#06817:00140000000000000000000000000000
#06818:0000000000130000
#06815:00001313
#07114:14
#0691a:14
#06910:41
#07518:14
#07312:14
#0771b:00130000
#0771f:11
#07712:24
#0771a:24
#07912:24130000
#0791a:24
#08115:00130000
#0811b:00130000
#08112:24
#0811a:24
#08318:00140000
#08314:00000014
#0831a:2424
#08312:2424
#08418:14000000140000001454545454545454
#08418:00000000000000000000005400000000
#08414:0014001400000000
#08612:14
#0861a:14
#08615:0000000000000013
#08718:13
#08715:0013000000000000
#0871a:0000002400000000
#08716:0000000000240000
#08712:0000000000000024
#08815:00140000000000000000000000000000
#08818:0000002400240000
#08814:0024
#08912:2414
#08914:0014000000000000
#08915:0000000000140000
#0891f:21
#09012:14
#0901b:0000001300000000
#09018:0000000013000013
#09015:0000000000130000
#09114:0000001400000000
#09118:0000000000140000
#09112:1300000000000024
#0911b:00130000
#09215:00140000000000000000000000000000
#09219:0013
#09214:0000000000130000
#0931a:2414
#09318:0014000000000000
#09317:0000000000140000
#09310:41
#0941a:14
#09416:00140000
#09415:0000000000000013
#09518:13
#09515:0013000000000000
#0951a:0000001400000024
#09512:0000000000140000
#09617:00140000000000000000000000000000
#0961a:0000000024240000
#09612:0000000024240000
#0981b:0013
#09815:0000000000130000
#09818:0000000000000013
#09812:14
#09914:0000001400000000
#09918:0000000000140000
#09912:1300000000000024
#0991b:00130000
#10015:00140000000000000000130000000000
#10018:00001313
#09712:2414
#09714:0014000000000000
#09715:0000000000140000
#10415:00140000000000000000000000000000
#10412:0000000024240000
#1041a:0000000024240000
#0311b:23
#04714:0024
#0471a:24
#0521a:0024
#05212:0024
#05112:54
#08518:64
#0105a:0000001400000000
#01052:0014000000000000
#0095a:0000000000000014
#0115a:0000000000000054
#01256:00000000002400000000000000000000
#02758:0000000000000014
#02854:0000001400000000
#0315b:53
#04558:0024
#0455a:54
#07752:14
#0775a:14
#10152:64
#1015a:0054
#10252:64
#10358:14
#10356:0000000000140000
#1035a:0000001400000000
#10352:0000000000000054
#00255:0013
#00258:00000013
#00352:54
#00355:0054
#0065b:0013
#00652:00000013
#0075a:64
#00757:0064
#01355:0000000000000053
#01558:53
#01758:0013000000000000
#0175b:0000000000130000
#01858:0013000000000000
#01955:53
#0195b:53
#01958:0063
#01952:0063
#02155:0013000000000000
#02152:0000000000130000
#02255:0013000000000000
#02252:0000000000130000
#02358:63
#02352:63
#02355:0053
#0235b:0053
#02655:00000000000000000024000000000000
#02652:0000005400003400
#03256:24
#0335b:13
#03452:13
#0355b:13
#03555:0053
#03652:13
#03658:0063
#0375b:13
#03755:0053
#03852:13
#03858:0063
#0395b:13
#03955:0053
#04052:13
#04058:0063
#0405b:00000013
#04654:0024
#04652:64
#04754:0054
#0475a:54
#04852:54
#04858:0064
#0495a:14
#05152:14
#0535a:5454
#05357:00540054
#0545a:54
#05456:00240000
#0555a:0000001400000064
#05552:0000000000140000
#05657:00240000000000000000000000000000
#05755:00640064
#05752:6464
#05852:64
#05954:0000001400000000
#05958:0000000000140000
#05952:1300000000000054
#06055:00240000000000000000000000000000
#06155:00640064
#06152:6464
#06252:64
#06256:00240000
#06352:0000001400000054
#0635a:0000000000140000
#06455:00240000000000000000000000000000
#06557:00540054
#0655a:5454
#0665a:54
#06758:0000001400000000
#06754:0000000000140000
#0675b:13
#0675a:0000000000000064
#06857:00240000000000000000000000000000
#07154:54
#0695a:54
#07558:64
#07352:64
#07858:00000013
#08055:00000013
#08252:00000013
#08258:00000013
#08558:14
#08855:00240000000000000000000000000000
#08752:0000000000000064
#08952:5464
#08954:0024000000000000
#08955:0000000000240000
#09052:64
#09154:0000001400000000
#09158:0000000000140000
#09152:1300000000000054
#09255:00240000000000000000000000000000
#0935a:6454
#09358:0024000000000000
#09357:0000000000240000
#0945a:54
#09456:00240000
#0955a:0000001400000064
#09552:0000000000140000
#09657:00240000000000000000000000000000
#09954:0000001400000000
#09958:0000000000140000
#09952:1300000000000054
#10055:00240000000000000000000000000000
#09752:5464
#09754:0024000000000000
#09755:0000000000240000
#09852:64
#10455:00240000000000000000000000000000
#0525a:0014
#05252:0014
#003320:14
#003350:0034
#004320:24
#0073a0:14
#007370:0034
#0083a0:24
#0113a0:0000000000000014
#012360:00000000005400000000000000000000
#0123a0:00000024
#013350:0000000000000013
#014320:00230000
#015380:13
#0163b0:23
#019350:13
#019320:00230000
#0193b1:13
#019381:00230000
#019381:0013
#0193b1:00000023
#019320:0013
#019350:00000023
#023380:13
#0233b0:00230000
#023321:13
#023351:00230000
#023351:0013
#023321:00000023
#0233b0:0013
#023380:00000023
#026320:0000001400002400
#026350:00000000000000000054000000000000
#027380:0000000000140024
#0313b0:13
#031360:0034
#032360:34
#032340:0028
#033350:00001323
#034380:00001323
#035350:0013
#035340:00000023
#036380:0013
#036390:00000023
#037350:0013
#037330:00000023
#038380:0013
#0383a0:00000023
#039350:0013
#039320:00000023
#040380:0013
#0403b0:00000023
#0453a0:14
#045380:0054
#0463a0:24
#046321:14
#046341:0054
#047321:24
#0473a0:14
#047380:0024
#047341:0014
#048321:34
#048341:0024
#048380:0014
#0493a0:24
#0533a0:1434
#053370:00340034
#0543a0:3424
#054360:00540000
#0553a0:0000000000000014
#056370:00540000000000000000000000000000
#0563a0:00240000
#057320:1434
#057350:00340034
#058320:34
#058350:00240000
#059320:0000000000000014
#060350:00540000000000000000000000000000
#060320:00240000
#061320:1434
#061350:00340034
#062320:3424
#062360:00540000
#063320:0000000000000014
#064350:00540000000000000000000000000000
#064320:00240000
#0653a0:1434
#065370:00340034
#0663a0:34
#066370:00240000
#0673a0:0000000000000014
#068370:00540000000000000000000000000000
#0683a0:00240000
#0693a0:14
#070380:34
#071380:24
#070341:14
#071341:34
#072321:3424
#0723a0:1424
#073320:14
#074340:34
#074320:0034
#075340:24
#074381:14
#0743a1:0034
#075381:34
#0763a1:3424
#076320:1424
#0773b0:0000001300000000
#077380:0000000000230000
#077320:0000000000000013
#078350:0023000000000000
#0783b0:0000001300000000
#078380:0000000000332300
#079320:0000001300000000
#079350:0000000000230000
#0793b0:0000000000000013
#080380:0023000000000000
#080320:0000001300000000
#080350:0000000000332300
#081350:0000001300000000
#081320:0000000000230000
#0813b1:0000001300000000
#081381:0000000000230000
#081381:0000000000000013
#0823b1:0023000000000000
#081320:0000000000000013
#082350:0023000000000000
#082350:0000001300000000
#082320:0000000000332300
#0823b1:0000001300000000
#082381:0000000000332300
#087321:0000000000000014
#088351:00540000000000000000000000000000
#088321:00240000
#089321:14343434
#089341:0054000000000000
#089351:0000000000540000
#090321:34
#090361:00240000
#091321:0000000000000014
#092351:00540000000000000000000000000000
#092321:00240000
#0933a1:14343434
#093381:0054000000000000
#093371:0000000000540000
#0943a1:3424
#094361:00540000
#0953a1:0000000000000014
#096371:00540000000000000000000000000000
#0963a1:00240000
#097321:14343434
#097341:0054000000000000
#097351:0000000000540000
#098321:34
#098361:00240000
#099321:0000000000000014
#100351:00540000000000000000000000000000
#100321:00240000
#101321:14
#101341:00342400
#1013a0:0014
#101380:00000034
#102380:24
#102321:14
#102351:00240000
#103321:0000000000000014
#104351:00540000000000000000000000000000
#104321:00240000
#050920:0014
#050960:00000054
#051920:24
#084980:0014
#085980:24
