This file was generated by Ched 2.7.0.0.
#TITLE ""
#ARTIST ""
#DESIGNER ""
#DIFFICULTY 0
#PLAYLEVEL
#SONGID ""
#WAVE ""
#WAVEOFFSET 0
#JACKET ""
#REQUEST "ticks_per_beat 480"
#00002: 4
#BPM01: 147
#00008: 01
#TIL00: ""
#VOLUME: ""
#HISPEED 00
#MEASUREHS 00
#0061a:14
#00610:41
#01418:2616
#01410:41
#0021a:14
#00412:14
#0071a:14
#00812:14
#00912:14
#01018:14
#01118:14
#01214:14
#01314:14
#01512:1616
#01618:16
#01612:0016
#01812:1616
#01918:1616
#02012:16
#02018:0016
#02218:14
#02210:41
#02414:14
#02618:14
#02714:14
#02818:14
#02914:14
#0301a:14
#03010:41
#03112:14
#0321a:14
#03312:14
#04412:0016
#04418:26
#0441f:21
#04612:1616
#04718:1616
#04812:16
#04818:0016
#05212:0016
#05218:26
#05318:16
#05312:0016
#05612:0016
#05618:16
#05718:16
#05712:0016
#05818:16
#05812:0016
#06018:0016
#06012:26
#06112:16
#06118:0016
#06418:0016
#06412:16
#06410:41
#06512:16
#06518:0016
#06612:16
#06618:0016
#0681a:14
#0691a:14
#07012:14
#07112:14
#07218:1414
#07314:1414
#0341f:11
#04510:41
#017380:1626
#021320:1626
#0343a0:14
#0353a0:34
#0363a0:34
#0373a0:24
#038320:14
#039320:34
#040320:34
#042320:24
#045380:1626
#049320:1636
#050320:26
#054380:1626
#055320:1626
#059380:1626
#062320:1626
#063380:1626
#067320:1626
#074380:1400340034003424
