This file was generated by Ched 2.7.0.0.
#TITLE ""
#ARTIST ""
#DESIGNER ""
#DIFFICULTY 0
#PLAYLEVEL
#SONGID ""
#WAVE ""
#WAVEOFFSET 0
#JACKET ""
#REQUEST "ticks_per_beat 480"
#00002: 4
#BPM01: 147
#00008: 01
#TIL00: ""
#VOLUME: ""
#HISPEED 00
#MEASUREHS 00
#0341f:11
#03415:0000000000001313
#03412:2300131300000000
#0341a:1414
#07117:0000001200120000
#07115:00000000000000000000000012000013
#07118:0000000000000013
#07119:0012
#07116:0014000000000000
#07112:2424
#06917:0000001200120012
#06919:00000012
#06915:0012
#06916:0014000000000000
#0691a:2424
#07412:1400240000002414
#0741a:2400000024001424
#07416:00141400
#07316:0014000000000012
#07318:00000012
#0731a:0000000000120000
#0731c:0012
#07312:24242424
#01912:13130013
#0191b:13131300
#01914:0000001300000000
#01916:0013
#01919:0000000000000013
#01917:00000013
#01812:23130013
#01819:0000000000000013
#01817:00000013
#0181b:1313
#01816:0013
#01814:0000001300000000
#0151b:13130013
#01512:13131300
#01519:0000001300000000
#01517:0013
#01514:0000000000000013
#01516:00000013
#0141b:23130013
#01412:1313
#01414:0000000000000013
#01416:00000013
#01417:0013
#01419:0000001300000000
#01410:41
#02012:1313130000000013
#02015:0000000013130000
#0291b:0000001300000000
#02915:1300001300000000
#02918:0013000000000000
#03215:1300000013000013
#03212:0000000000130000
#03218:0000001300000000
#0321b:0000130000000013
#0161b:13130000
#01618:0000000000001313
#02118:0013001300001300
#02115:00130013
#02112:13
#0261b:13
#02615:1300001300000000
#02612:00130000
#02818:1300000000130000
#02815:00130013
#02812:0000000000000013
#0281b:0013
#04618:13
#04616:00001313
#04619:0000000000000013
#0461b:00001313
#04614:0000001300000000
#04612:23130000
#04415:00130013
#0441b:1300000013000013
#0441f:21
#04412:23
#04918:13130013
#04915:0013001300001300
#06615:00130013
#06618:0013001300130000
#06612:0013000013130000
#0661b:0000130000000013
#06516:13130000
#06512:0000000000000013
#06518:0000000000000013
#06515:00000013
#0651b:00130013
#06517:0013
#06519:0000001300000000
#06417:13001313
#06416:00130000
#06412:13000013
#06414:0000000000000013
#06419:0000001300000000
#06410:41
#05418:1313
#05412:00130000
#0541b:0000000000000013
#05415:00000013
#0591b:0000000000130000
#05912:0000000000130000
#05918:0013
#05915:0013
#05815:0013130000130000
#0581b:0013130000130000
#05818:0000000000000013
#05812:0013
#04717:13130000
#0471b:0000000013001313
#04716:0013
#04714:0000001300000000
#04712:13130000
#04715:0000000000001313
#04812:0013000000130000
#04818:0013000000130000
#04815:0000130013000013
#0481b:00131300
#00918:0013000000001300
#00912:0000000000130000
#0091b:0000001300000000
#00915:00130000
#0081b:1313
#00812:00130000
#00815:00000013
#00818:0000000000000013
#0451b:00000013
#04515:0013000000130000
#04512:0000001300000000
#04518:00130000
#04510:41
#05718:0000000000001313
#05712:1300000000001313
#0571b:0000131313000000
#05612:2300000000001313
#0561b:0000001313000000
#06315:0000000000131300
#0631b:00000013
#06318:0000131300000000
#06312:0013130000000000
#06715:0013001300000013
#06718:00130013
#0671b:1313
#06712:1313
#0551b:0000000000130000
#05515:00130013
#05518:0000001300000000
#05512:0013000000000000
#06215:0000000000000013
#0621b:0000000000001313
#06218:13
#06118:1300000000000013
#06115:0000001313000000
#06018:0000230000001313
#06012:1313
#0601b:1313
#06015:00230000
#05318:0000000000001313
#05315:0000131300000000
#05218:0000000000001313
#05215:0000131300000000
#05212:23
#07218:0000000000000013
#07216:00000013
#07214:0013
#07212:00130000
#0721a:24242424
#0701b:13000013
#07017:0013
#07019:00130000
#07018:0000000000000013
#07012:2424
#06812:13000013
#06816:0013
#06814:00130000
#06815:0000000000000013
#0681a:2424
#03315:0000001300000013
#03318:0013000000001300
#0331b:0000001300000000
#03312:0013000000000000
#0301b:13130000
#03015:0013000000000000
#03012:13
#03018:0000001300000000
#03010:41
#04112:0023000000001300
#04115:0000001300230000
#04118:0013000000130000
#0411b:0000002300002300
#04015:0000000000000013
#04012:14001423
#0401b:0000131300001300
#04018:0000000000000023
#03912:1414
#03918:0000000000001313
#0391b:0000131300000000
#03812:1414
#03818:0000000000001313
#0381b:0000131300000000
#0371a:1414
#03718:0000000000000013
#03715:0013000000001300
#03712:00130000
#0361a:1414
#03615:0000000000000013
#03612:0000131300001300
#0351a:1414
#03515:0000000000000013
#03512:00130000
#0311b:0000000000000013
#03118:00001313
#03115:0000000000130000
#03112:0000001300000000
#02712:0000000000000013
#02715:00001313
#02718:0000000000130000
#0271b:0000001300000000
#01212:0000000013130013
#0121b:0013130000000013
#01218:0000000013130000
#01215:0013130000000000
#01119:00131300
#01113:13
#01118:0000000000000013
#01115:00000013
#01114:0000001300000000
#0101b:00131300
#0101a:0000000000000013
#01013:00000013
#01012:0000001300000000
#00713:00131300
#00719:13
#00712:0000000000000013
#0071b:00000013
#0071a:0000001300000000
#00615:00131300
#00614:0000000000000013
#00619:00000013
#00618:0000001300000000
#00610:41
#02519:00130015
#02512:00000015
#02514:1313
#02517:0022002200220000
#04218:1323000000000000
#04215:23
#02419:0000000000001313
#0241a:0013
#0241b:13130000
#02412:00131313
#0231b:13131313
#02315:0013000000000000
#02214:0000000000001313
#02213:0013
#02212:23130000
#0221b:23131313
#02210:41
#0171b:0013131300000000
#01718:0000000000232300
#00415:0000000013000013
#00418:00130013
#0041b:0013
#00215:00130013
#00218:0013
#00212:0013
#00115:00000000000000000000000000000013
#00118:0000000000000013
#04318:0000000000230023
#04315:00000023
#05012:72
#0501c:72
#03552:0000000000130000
#05955:00006313
#05958:00005313
#0595b:0000000000230000
#05952:0000000000230000
#00358:0013000000000000
#05652:13
#04652:13
#04658:53
#01852:13
#0185b:63
#05252:13
#04452:13
#04455:00630000
#0445b:6300000063000013
#06055:00130000
#06058:00130000
#06052:53
#0605b:63
#02252:13
#0225b:13
#0145b:13
#01452:53
#07356:0014000000000000
#0295b:0000006300000000
#02955:0000006300000000
#02958:0053000000000000
#03255:63
#0165b:00630000
#02158:00000053
#02155:00000063
#0265b:63
#02858:53
#02855:00630000
#04958:00000053
#04955:00000063
#06655:00000023
#06658:0000002300000000
#06652:0000000000530000
#0665b:00630000
#06556:00630000
#06552:0000000000000013
#06558:0000000000000013
#06457:53000053
#06456:00630000
#05458:5353
#05452:00530000
#0545b:0000000000000013
#05855:0000000000630000
#0585b:00630000
#04755:0000000000000013
#0475b:0000000000000013
#00958:00000013
#0095b:0000001300000000
#0085b:6363
#00852:00530000
#00858:0000000000000013
#0455b:00000013
#04552:0000001300000000
#05758:0000000000000013
#05752:0000000000000013
#06355:00000013
#06358:0000001300000000
#05555:00000013
#05558:0000001300000000
#06255:0000000000000013
#07156:0014000000000000
#06956:0014000000000000
#01159:0063
#01153:53
#01158:0000000000000013
#0105b:0063
#00753:0063
#00759:53
#00655:0063
#02355:0013000000000000
#0023b0:13230000
#002380:0000000000000013
#003380:0023000000000000
#004320:13230000
#006380:13230000
#006350:0013
#006340:00000023
#007390:13
#0073a0:00230000
#007330:0013
#007320:00000023
#0083b0:13
#008380:00230000
#008321:00130000
#008351:0023
#0083b0:0013
#008380:00000023
#010320:13230000
#0103b0:0013
#0103a0:00000023
#011330:13
#011340:00230000
#011390:0013
#011380:00000023
#013320:13530000
#013350:00005323
#0133b1:13530000
#013381:00005323
#014321:13
#014351:00230000
#016321:13
#018321:23
#0163b0:00130000
#016380:0023
#0183b0:13
#018380:00230000
#0203b0:13
#0213b0:23
#021350:00001333
#022320:23
#021381:00000013
#0223b1:23
#023351:0000001300330033
#023321:00003333
#024321:23
#0263b1:13
#026381:00230000
#026321:0013
#027321:23
#026380:0013
#027380:23
#028380:13
#0283b0:00230000
#028351:00130000
#028321:0023
#029381:0013000000002300
#0293b1:0000005300000000
#029350:0000001300000000
#029320:00000023
#0303b0:0013
#0313b0:23
#030351:0013
#031351:23
#032351:13
#032321:00230000
#035321:0000001300230000
#042351:0013000000000000
#042321:00530000
#043321:0023
#042380:0013000000000000
#0423b0:00530000
#0433b0:0023
#0443b0:13
#044380:00230000
#044351:00130000
#044321:0023
#0443b0:0013
#044380:00000023
#046380:13
#0463b0:00230000
#049380:00001333
#0503c0:22
#049351:00000013
#050321:22
#052381:13
#0523b1:00332300
#052350:0013
#052320:00000033
#053320:23
#053381:13
#0533b1:00332300
#053350:0013
#053320:00000033
#054320:23
#054381:13
#0543b1:00230000
#054320:00130000
#054350:0023
#054381:0013
#0543b1:00000023
#0563b1:13230000
#056350:00132300
#056380:00000013
#057380:23
#057350:00132300
#0583b0:00130000
#058380:0023
#058350:0000000000130000
#058320:0000000000000023
#059350:13230000
#059381:00133323
#0593b1:0000000000530000
#059350:00001323
#059320:0000000000530000
#060320:13
#060350:00230000
#0603b1:13
#060381:00230000
#060321:00000013
#061321:33
#061351:00230000
#0613b0:00133300
#061380:00000023
#061321:00000013
#062321:33
#062351:00230000
#0623b0:00130000
#062380:0023
#062321:0013
#062351:00000023
#064371:13
#0643b1:00230000
#064360:00130000
#064320:0023
#064370:00000013
#0653b0:23
#065360:00130000
#065320:0023
#0663b0:00132300
#066380:0000005300000000
#066320:0000000000130023
#066350:00000053
