This file was generated by Ched 2.7.0.0.
#TITLE ""
#ARTIST ""
#DESIGNER ""
#DIFFICULTY 0
#PLAYLEVEL
#SONGID ""
#WAVE ""
#WAVEOFFSET 0
#JACKET ""
#REQUEST "ticks_per_beat 480"
#00002: 4
#BPM01: 147
#00008: 01
#TIL00: ""
#VOLUME: ""
#HISPEED 00
#MEASUREHS 00
#00118:0000000000000013
#00115:00000000000000000000000000000013
#00215:00130013
#00212:0013
#00218:1313
#0021b:00130000
#00415:1300000013000013
#00418:00130013
#0041b:1313
#00412:00130000
#00615:0000001300000000
#00614:0000000000000013
#00610:41
#00815:0000000000000013
#0081b:1313
#00818:00130000
#00918:0013001300000000
#00912:00130000
#00915:0000000000130000
#0091b:00000013
#01415:00131300
#0141b:2300001300000000
#0141a:00000013
#01414:0000000000000013
#01410:41
#01618:13000013
#01615:0000130000000013
#0171b:0013001300000000
#01715:0000130000232300
#01718:0000000000131300
#02015:0000000013000013
#0201b:0000000000130000
#02012:0013000000000000
#02018:00130000
#02118:13130000
#02115:0013001300000000
#02218:23000013
#02215:2300000000000013
#0221b:00130000
#02212:0013
#02210:41
#0231b:0013000000000000
#02418:1300000000000013
#02415:00000013
#02412:00130000
#0241b:0013
#02518:00130000
#02515:1313
#02512:00000013
#0251b:00000013
#0421b:1323000000000000
#04212:2313000000000000
#04318:00000013
#04315:0000000000000013
#0581b:0013000000000013
#05815:00130000
#05812:0000000013000013
#05818:0000000000130000
#01215:0013000000000000
#0121b:00130000
#01212:0013
#01218:0000000000130000
#0271b:0000001300000000
#02715:00001313
#02718:0000000000130013
#0281b:00001313
#02815:1300000000130013
#02918:13
#02915:0000001300000000
#0341b:0000131300000000
#03412:0000000000001313
#0341f:11
#03518:00130000
#03515:0000000000000013
#0361b:0000131300000000
#03615:0000000000001313
#03718:0013130000000013
#03715:00000013
#03915:0000131300000000
#03918:0000000000001313
#04012:0000131300002313
#04018:0000000000001323
#0411b:0013000000132300
#04112:0000001300000000
#04115:0023000000231300
#04118:0000002300000000
#03318:00000013
#03315:0013000000000013
#06815:00000013
#06818:0000000000000013
#06812:00130000
#0681a:24
#06816:0024
#0691b:0013000000000000
#06918:00000013
#06912:2424
#0711b:0000000000000013
#07112:0013000000000000
#07115:00000013
#0711a:2424
#05215:0000130000000013
#05218:2600001300001300
#05212:2613
#05515:0013000000001300
#05512:0000001300000000
#05518:00130000
#0551b:0000000000130000
#0601b:00231300
#06012:00231300
#06015:00000013
#06018:0000000000000013
#06118:0000001300001300
#06115:1300000013000013
#06112:0013000000000000
#0621b:00130013
#06215:0000000000000013
#06212:13130000
#06712:1313
#06718:0013000000001300
#06715:0000130000000013
#0671b:0000001300000000
#0661b:0013130000000013
#06615:0013130000000000
#06612:0000000013130000
#06618:0000000013130000
#05615:0000001300000000
#0561b:1313
#05618:0000000000000013
#05612:00000013
#05715:00000013
#0571b:00000013
#05712:1300000013000013
#05718:0000001300000013
#04818:0000000013000013
#04812:0000000000130000
#0481b:0013000000000000
#04815:00130000
#0471b:0000000000001313
#04715:1300000000001313
#04718:0000001300000000
#04712:0013
#04615:0000001300001300
#0461b:0013
#04618:1300000000000013
#05918:0013
#0591b:13
#05915:0013
#05912:13
#04415:00130000
#04418:00000013
#04412:0000000000000013
#0441b:23
#0441f:21
#00713:0000001300000000
#00712:0000000000000013
#01018:0000001300000000
#01019:0000000000000013
#0111a:0000001300000000
#0111b:0000000000000013
#01312:13
#0131b:13
#01513:00131300
#01519:0000001300000000
#0151a:13
#01518:00000013
#01512:0000000000000013
#01818:00131300
#01812:2300001300000000
#01813:00000013
#01819:0000000000000013
#0191a:00131300
#01914:0000001300000000
#01913:13
#01915:00000013
#0191b:0000000000000013
#0261b:13
#02612:00130000
#02618:0000001300000000
#03112:0000001300000000
#03118:00001313
#03115:0000000000130013
#03018:13
#0301b:00130000
#03015:0000001300000000
#03012:0013000000000000
#03010:41
#03218:1300000000130000
#03212:0000000013000013
#03812:0000131300000000
#0381b:0000000000001313
#07018:00000013
#07015:0000000000000013
#0701b:00130000
#07012:24
#07016:0024
#07416:1424
#07412:0014
#0741a:2400000000001424
#07414:0000140000002414
#07418:00240000
#07219:0000000000000013
#07212:24000024
#07216:00240000
#0721a:0024
#0731b:0013000000000000
#07316:00240000
#07314:24
#0731a:0024
#07312:00000024
#0451b:00130000
#04512:0000000000131300
#04515:0000001300000000
#04518:0000000000131300
#04510:41
#04915:13130000
#04918:0013001300000000
#05015:13
#05018:13
#0531b:13
#05315:0000130000000013
#05318:0000001300001300
#05312:0013
#0541b:13
#05418:0000000000000013
#05412:0013
#0631b:0013000000001300
#06312:00130000
#06318:0000001300000000
#06315:0000000000130000
#06418:0000001300001300
#06415:0013000013000013
#06412:13
#06410:41
#06515:0000001300000013
#06518:0013000013001300
#0651b:1300000000000013
#06512:00000013
#0145b:13
#0235b:0013000000000000
#06052:00130000
#0605b:00130000
#0085b:6363
#00858:00530000
#0695b:0013000000000000
#05552:0000001300000000
#05555:00000013
#06255:0000000000000013
#06252:00530000
#0625b:00630000
#05958:0053
#0595b:63000013
#05955:0063
#05952:53000013
#04455:00630000
#0445b:13
#04452:0000000000000053
#04658:53
#01655:00630000
#03558:0000000000130000
#00358:0013000000000000
#01352:53
#0135b:63
#02255:13
#02258:13
#02855:63
#02955:0000006300000000
#03258:53
#03252:0000000000000053
#03355:0063000000000000
#07152:0013000000000000
#04755:63
#05055:63
#05058:53
#05258:16
#05252:16
#0545b:63
#05458:0000000000000013
#05452:0053
#0565b:63
#05752:53
#06152:0023000000000000
#06155:63
#06358:0000001300000000
#0635b:00000013
#06452:53
#06455:0023000000000000
#0655b:63
#06558:0023000000000000
#01852:13
#002380:0000000000000013
#003380:0023000000000000
#0063b0:13230000
#0063a0:00001323
#007390:13230000
#007380:00001323
#0083b0:1333
#008380:00330023
#010320:13230000
#010330:00001323
#011340:13230000
#011350:00001323
#0123b0:0000000000000013
#0133b0:33
#013380:00000023
#012321:0000000000000013
#013321:33
#013351:00000023
#016351:00130000
#016321:0023
#021381:00001333
#022381:23
#021350:00000013
#022350:23
#026350:0013
#027350:23
#028350:13
#028320:00230000
#029350:0013003300000000
#029320:00000023
#030380:0013
#031380:23
#032380:13
#0323b0:00230000
#032320:0000000000000013
#033350:0033000000000000
#033320:0000002300000000
#035380:0000001300230000
#044350:00130000
#044320:0023
#044320:0000000000000013
#045350:0023000000000000
#046380:13
#0463b0:00230000
#047350:13
#047320:00230000
#049350:00001333
#050350:53
#051320:0053000000000000
#052320:26
#049381:00000013
#050381:53
#0513b1:0053000000000000
#052381:26
#0543b1:13
#054381:00230000
#054321:0013
#054351:00000023
#0563b1:13
#056381:00230000
#057321:13
#057351:00230000
#0593b1:13000023
#059381:00333300
#059320:13000023
#059350:00333300
#060320:13230000
#0603b1:13230000
#061351:13230000
#061321:0053000000000000
#062321:00130000
#062351:0023
#0623b0:00130000
#062380:0023
#064320:13230000
#064350:0053000000000000
#0653b0:13230000
#065380:0053000000000000
