This file was generated by Ched 2.7.0.0.
#TITLE ""
#ARTIST ""
#DESIGNER ""
#DIFFICULTY 0
#PLAYLEVEL
#SONGID ""
#WAVE ""
#WAVEOFFSET 0
#JACKET ""
#REQUEST "ticks_per_beat 480"
#00002: 4
#BPM01: 147
#00008: 01
#TIL00: ""
#VOLUME: ""
#HISPEED 00
#MEASUREHS 00
#0061a:1414
#00612:00140000
#00610:41
#0101a:1414
#01014:00140000
#0121a:14
#01212:00140000
#00712:1414
#0071a:00140000
#00818:1414
#00814:00140000
#00914:1414
#00918:00140000
#01112:1414
#01118:00140000
#01414:00160000
#01416:0016
#01418:00000016
#01412:16
#01410:41
#01512:16
#01514:00160000
#01516:0016
#01518:00000016
#01814:00160000
#01816:0016
#01818:00000016
#01812:16
#01912:16
#01914:00160000
#01916:0016
#01918:00000016
#04414:00160000
#04416:0016
#04418:00000016
#04412:16
#0441f:21
#04512:16
#04514:00160000
#04516:0016
#04518:00000016
#04510:41
#02012:1414
#02018:00140014
#02114:1414
#0211a:00140014
#06012:00141516
#06018:00240000
#06019:0024
#0601a:00000024
#06017:24
#06112:16242526
#0611a:24242424
#05212:00141516
#05218:00240000
#05219:0024
#0521a:00000024
#05217:24
#05312:16
#05313:00150000
#05314:0014
#0531a:24242424
#05614:00160000
#05612:26
#05618:00000026
#05616:0026
#03214:1414
#03218:00140000
#0311a:00000014
#03112:0014
#03018:1414
#03012:00140000
#03010:41
#02614:1414
#0261a:00140000
#02912:0014
#02916:00140000
#0291a:14
#02818:1414
#02814:00140014
#02712:00000014
#0271a:0014
#0721a:1414
#07212:00140000
#07214:00000014
#07412:1414
#0741a:00140000
#07418:00000014
#07414:0000000000000014
#06612:1414
#0661a:00140014
#06714:14
#06718:00140000
#06712:0014
#06716:00000014
#05812:1414
#0581a:00140014
#05914:14
#0591a:00140000
#05916:0014
#05912:00000014
#04812:14
#0481a:00140000
#04814:0014
#04818:00000014
#04912:14
#0491a:00140000
#04914:0014
#0341f:11
#03414:00003434
#03413:00340000
#04612:16
#04614:00160000
#04616:0016
#04618:00000016
#04712:16
#04714:00160000
#04716:0016
#04718:00000016
#05412:26
#05414:0026
#05518:0026
#05516:26
#05712:26
#05714:00260000
#05718:00000026
#05716:0026
#06319:0025
#06312:0025
#06317:25
#06214:0025
#06212:25
#06412:24
#0641a:0024
#06416:00240024
#06410:41
#06512:24
#0651a:0024
#06516:00240024
#0421a:24
#0401a:0034
#04019:00340000
#03912:34343400
#03812:00003434
#03813:00340000
#03718:34343400
#03618:00003434
#03619:00340000
#03514:34343400
#02210:41
#0135a:14
#02352:0014000000000000
#0425a:14
#0035a:0014000000000000
#06958:0014000000000000
#07154:0014000000000000
#07358:0014000000000000
#0023a0:1400340034003434
#0033a0:0024000000000000
#004320:1400340034003434
#005320:0024
#0123a0:0014
#0133a0:24
#016320:16260000
#016340:00001626
#017360:16260000
#017380:00001626
#022320:1400340034003434
#023320:0024000000000000
#0243a0:1400340034003434
#0253a0:0024
#032380:0000000000001434
#033380:0024
#034320:14
#034330:00340000
#034340:00003434
#035340:34343424
#0363a0:14
#036390:00340000
#036380:00003434
#037380:34343424
#038340:14
#038330:00340000
#038320:00003434
#039320:34343424
#040380:14
#040390:00340000
#0403a0:0000000034003434
#0413a0:0034003400343400
#0423a0:24
#049380:00000014
#050380:24
#054320:16260000
#054340:00001626
#055360:16260000
#055380:00001626
#062320:15250000
#062340:00001525
#063370:15250000
#063390:00001525
#063321:00001525
#0683a1:1434
#068381:0000340000003434
#069381:0024000000000000
#070321:1434
#070341:0000340000003434
#071341:0024000000000000
#072381:0000000000000014
#073381:0024000000000000
