This file was generated by Ched 2.7.0.0.
#TITLE ""
#ARTIST ""
#DESIGNER ""
#DIFFICULTY 0
#PLAYLEVEL
#SONGID ""
#WAVE ""
#WAVEOFFSET 0
#JACKET ""
#REQUEST "ticks_per_beat 480"
#00002: 4
#BPM01: 100
#00008: 01
#TIL00: ""
#VOLUME: ""
#HISPEED 00
#MEASUREHS 00
#02712:14
#02715:00000000130000130000000013000000
#02718:00000000000013000000000000130000
#0271a:24
#0271f:21
#02818:00000000130000130000000000000000
#02815:0000001300130000
#02812:13000000000000000000000000000013
#02810:41
#02915:00000000130000130000000000000000
#02918:0000001300130000
#0291b:13000000000000000000000000000013
#03012:13
#03018:00001300000000000000000000130000
#03015:00000000000000130000000013000000
#03118:00000013000000000000130000000000
#03115:00000000000000000000000000000013
#03112:2313
#03415:00001300001300000000000000000000
#03418:00000013
#0341b:13
#03412:00000000000000000000000000130000
#03410:41
#03515:00000000000000130000000000001300
#03518:00000000000000000000000000000013
#0351b:2300001300000000
#03618:0013000000000000
#0361b:00000000130000130000000000000000
#03616:0013
#03617:00000013
#03612:23
#03712:1300001323000000
#0371b:2313
#03718:00000013000000000000130000000000
#03716:00000013
#0321b:13
#03212:0000000000130000
#03218:00000000000000000000000000000013
#03215:00130000
#03312:13
#0331b:0000000000130000
#03315:00000000000000000000000000000013
#03318:00130000
#03912:13130000
#03914:0000001300000000
#03916:0013
#03918:0000000000130000
#03917:0000130000000013
#0391b:2313
#03915:00000000000000000000001300000000
#03910:41
#04015:00000000000000000000130000130000
#04018:0000000000000013
#04017:1313
#0401b:00130000
#04019:0000001300000000
#04016:00130000
#04012:2313
#0381b:1300001323000000
#03817:00000013
#03812:2313
#03815:00000013000000000000130000000000
#04217:0000130000000013
#04212:13130000
#04216:0013000023000000
#0421b:23
#04116:13130000
#04112:0013000023001300
#0411b:2300130000130000
#04117:00001313
#04312:13
#04317:23
#00915:0013000000000000
#00918:22130013
#0091b:0000001300000000
#00912:1313
#00910:41
#0211b:1300001300130000
#02118:0013000000001300
#02115:0000130000000013
#02112:2400001300000000
#0211f:11
#0201a:2400000000130000
#02018:0000240000000013
#02016:1324
#02014:00000024
#02215:0000001300000000
#02218:00000000000000130000000000000000
#0221b:00000000000000000000000000130000
#02212:1324
#0221a:24
#02216:00000024
#02415:00001300000000000000000000130000
#0241b:0013
#02412:0000000000130000
#02418:24000013000000000000000024000000
#02414:0000002400000000
#02312:1300000000000013
#02316:00130000
#0231a:24
#01618:0000140000130013
#01615:00000013
#01614:14
#01616:0014000000000000
#0161a:0000001400000000
#01712:13000013
#01715:0013000000000000
#01718:00130000
#01719:0000000000000013
#0171b:0000001300000000
#0171a:24
#0181b:13000013
#01818:0013000000000000
#01815:00130000
#01812:1300001300000000
#01814:0000000000000013
#0191b:13
#01918:00001300000000000000001300000000
#01915:00130000
#01912:2400001300130000
#01916:0000000000000013
#01910:41
#02612:1313
#0261a:00000013000000000000000000000000
#02614:0000001300001300
#0261b:1313
#02619:0000001300001300
#02613:00000013000000000000000000000000
#01215:0000000000130000
#0121b:00130013
#01218:0000000000000013
#01212:13
#01315:1300001300000000
#01312:0013000000130000
#0131b:0000001300000013
#01318:0013000000130000
#01418:13000000000000001300001300000000
#01415:0013001300130000
#01412:0000130000000013
#01410:41
#0151b:13
#01517:00130000
#01512:0000000000000014
#00815:0000000000130000
#00813:0000000000000013
#00814:00000013
#00818:22
#0081a:00000022
#0081c:0022
#01012:1300000000000013
#01018:0013000000130000
#0101b:0000001300000000
#01015:00000013000000001300000013000000
#01118:1300001300000013
#01112:0013000000000000
#01115:00130013
#0111b:0013
#0251a:24
#02512:24
#00116:22
#00218:22
#00316:22
#00314:0022
#0031a:00000022
#00418:2222
#00416:00000022
#00514:22
#0061c:22
#00618:0022
#00712:22
#00716:0022
#0071a:00000022
#05216:00000052
#05214:0000000000000000000000000000000000000000000000520000000000000000
#0521c:00000000000000000000000000000062
#02852:13
#02858:00000000000000530000000000000000
#03052:13
#03058:00000000000000000000000000530000
#03055:00000000000000630000000000000000
#0295b:13
#02955:00000000000000630000000000000000
#0325b:13
#03352:13
#0345b:13
#03455:00000000006300000000000000000000
#03452:00000000000000000000000000530000
#04156:63630000
#04152:0023000013000000
#04157:00005353
#0415b:1300000000230000
#04252:53530000
#04256:0023000013000000
#0425b:13
#04352:53
#04357:13
#03955:00000000000000000000006300000000
#0395b:13
#03857:00000053
#03852:1353
#03855:00000063000000000000230000000000
#0385b:6313
#0375b:1363
#03758:00000053000000000000230000000000
#03752:5313
#03756:00000063
#03656:0063
#03652:13
#03555:00000000000000630000000000000000
#0355b:13
#02755:00000000000000630000000000000000
#02758:00000000000000000000000000530000
#0275a:14
#0215b:0000001300000000
#02152:0000001300000000
#02458:00000053000000000000000000000000
#02455:00000000000000000000000000630000
#02352:53
#02356:00230000
#02056:63
#02252:53
#01958:00000000000000000000005300000000
#01852:0000005300000000
#0175b:0000006300000000
#01352:0013000000130000
#0135b:0000001300000000
#0155b:63
#01557:00230000
#01458:00000000000000000000005300000000
#01252:53
#01255:00130000
#0125b:00130000
#03152:13
#04052:13
#0255a:14
#02552:14
#00958:00000053
#00952:0053
#0115b:0063
#01055:00000063000000000000000000000000
#0013a0:1222
#002340:1222
#0033c0:1222
#004320:1222
#0053a0:1222
#006320:1222
#0073c0:1222
#008340:1222
#009320:0013
#009350:00000023
#009381:00000013
#0103b1:23
#010351:00000013000000000000000000000000
#010321:0000002300000000
#0113b1:0013
#011381:00000023
#012321:13
#012351:00230000
#014381:00000000000000000000001300000000
#0143b1:0000000000000023
#0153b1:1323
#015371:00530000
#0173b1:0000001300000000
#017371:00000023
#018321:0000001300000000
#018361:00000023
#019381:0000000013230000
#019381:00000000000000000000001300000000
#0193b1:0000000000000023
#020361:13
#020321:0023
#022321:13
#022351:00230000
#022380:0000132300000000
#0223b0:0000000000132300
#023320:1323
#023360:00530000
#024380:00000013000000000000000000000000
#0243b0:0000002300000000
#024350:00000000000000000000000000130000
#025320:24
#027350:00000000000000130000000000000000
#027320:0000000000230000
#027381:0000000000132300
#027381:00000000000000000000000000130000
#0283b1:23
#028381:00000000000000130000000000000000
#0283b1:0000000000230000
#0283b1:00000000000000000000001300000023
#028381:00000000000000000000000000330000
#029351:00000000000000130000000000000000
#029321:0000000000230000
#029321:00000000000000000000001300000023
#029351:00000000000000000000000000330000
#030351:00000013002300000000000000000000
#0303b0:00000000001300230000000000000000
#030351:00000000000000130000000000000000
#030321:0000000000230000
#030380:0000000000132300
#030380:00000000000000000000000000130000
#0313b0:23
#031350:0000132300000000
#0313b1:0000001323000000
#031351:00000000000000000000001300230000
#0313b0:00000000000000000000000000130023
#0323b0:0000132300000000
#032351:0000001323000000
#032380:0000000013230000
#0323b0:00000000000000000000001300230000
#032321:00000000000000000000000000130023
#033321:0000132300000000
#033380:0000001323000000
#033351:0000000013230000
#033321:00000000000000000000001300230000
#0333b0:00000000000000000000000000130023
#0343b0:00000013002300000000000000000000
#034351:00000000001300000000000000000000
#034321:0023
#034380:0000000013230000
#034321:0000000000132300
#034321:00000000000000000000000000130000
#035351:23
#035351:0000132300000000
#035351:00000000000000130000000000000000
#035321:0000000000230000
#035380:0000000000130023
#0353b0:00000033
#036360:00000000001300230000000000000000
#036360:0013
#036320:00000023
#037320:13
#037350:00000023000000000000000000000000
#037381:00000013000000000000000000000000
#0373b1:0000002300000000
#0373b1:00001323
#037381:0000000000530000
#037360:00000013
#038320:23
#0383b1:13
#038381:00000023000000000000000000000000
#038350:00000013000000000000000000000000
#038320:0000002300000000
#038320:00001323
#038350:0000000000530000
#038371:00000013
#0393b1:23
#039351:00000000000000000000001300000000
#039321:0000000000000023
#040381:00000000000000000000001300230000
#041361:13330000
#041321:0053000023000000
#041370:00001333
#0413b0:0000000000530000
#0423b0:23
#042321:13330000
#042361:0053000023000000
#0423b0:00000000000000001300002300000000
#042321:00000000000000000000001300002300
#043321:13
#044321:22
#045341:1222
#0453a0:0012
#0463a0:22
#046341:1200002200000000
#046380:0000001200000000
#047380:22
#047341:1222
#0473a0:0012
#0483a0:22
#048361:1200002200000000
#0483c0:0000001200000000
#0493c0:22
#049361:1222
#0493a0:0012
#0503a0:22
#050361:1222
#0503a0:0012
#0513a0:22
#051341:1222
#051380:0012
#052380:22
#052321:12220000
#052380:0000122200000000
#052341:0000000000000000000000001200000000000000000000220000000000000000
#052940:0000000000000000000000000000000000000000000000120000000000000000
#052960:00000022
