This file was generated by Ched 2.7.0.0.
#TITLE ""
#ARTIST ""
#DESIGNER ""
#DIFFICULTY 0
#PLAYLEVEL
#SONGID ""
#WAVE ""
#WAVEOFFSET 0
#JACKET ""
#REQUEST "ticks_per_beat 480"
#00002: 4
#BPM01: 100
#00008: 01
#TIL00: ""
#VOLUME: ""
#HISPEED 00
#MEASUREHS 00
#02712:00130000
#02718:00000000000013000000000000130000
#02715:00000000000000130000000013000000
#0271b:2300000000130000
#0271f:21
#03018:00001300000000000000000000130000
#03015:00000013
#0301b:0000000000130000
#03014:00000000003300000000000000000000
#03118:00000013000000000000130000000000
#03115:00130000
#0311b:0000001300000000
#03112:2313
#03113:00000000000000000000000000330000
#03515:0000000000000013
#03518:0000001300000000
#03512:00130000
#0351b:23000013
#03215:0000000000130000
#0321b:00130000
#03212:0000001300000000
#03218:0013
#0321a:00000000000000000000000000330000
#03318:0000000000130000
#03312:00130000
#0331b:0000001300000000
#03315:0013
#03313:00000000000000000000000000330000
#0091b:0013000000000000
#00915:00130013
#00918:0000001300000000
#00912:1313
#00910:41
#02015:0000000000130013
#0201b:13
#02018:00000013
#02215:00000000000013000000000000130000
#02218:00000000000000130000000013000000
#0221b:00130000
#02212:2300000000130000
#02315:0000000000000013
#0231b:13
#0241b:2313
#02415:0013000000130000
#02418:00000013000000000000000023000000
#02412:0000002300000000
#0211b:0000130000130000
#02112:0013000000000000
#02115:0000001300001300
#02118:2300000000000013
#0211f:11
#01715:0013000000000000
#01718:0000130000000013
#01712:0000001300000000
#0171b:23
#01812:13
#01815:0000130000000013
#01818:0013000000000000
#0181b:0000001300000000
#01915:0013000000130000
#01918:00000000130000000000001300000000
#01912:0000001300000013
#0191b:2313
#01910:41
#02618:0013
#02615:00000013
#01215:0000000000130013
#01218:00000013
#0121b:13
#01312:0013000000130000
#0131b:0000001300000013
#01318:13
#01412:00131300
#0141b:0000001300000013
#01415:13000000000000000000001300000000
#01418:0013000000130000
#01410:41
#0081b:0000000000130000
#00818:00000013
#00815:0000000000000013
#01018:0013001300000013
#01015:00000013000000001300000013000000
#01012:0000000000130000
#01512:13
#0151b:0000000000000013
#01612:13
#01618:0013000000001300
#01615:0000130000130013
#0161b:0000001300000000
#02812:00130000
#02818:0000001300130000
#02815:00000000000000130000000000000000
#02814:00000000000000000000000000330000
#02810:41
#0291b:00130000
#02915:0000001300130000
#02918:00000000000000130000000000000000
#02919:00000000000000000000000000330000
#03418:0013000000001300
#03418:00000013
#03415:00000013000000000000000000130000
#03412:0000000000130000
#03410:41
#03615:00000000130000130000000000000000
#03618:00000000001300001300000000000000
#05216:00000012
#05218:00000000000000000000000000000022
#0391b:00130000
#03912:2300001300000000
#03918:00000000000000001300001300000000
#03915:0000000000130000
#03910:41
#04015:00000000000000000000001300001300
#04018:00000000000000000000130000130000
#04012:00131300
#0401b:0000001300000000
#0371b:00130000
#03712:23000013
#03718:0023
#03815:23000013
#03818:00130000
#0381b:0023
#04112:23130000
#04118:23130000
#0411b:00002313
#04115:00002313
#04212:23130000
#04218:23130013
#04215:0000000023000013
#0421b:0023
#0111b:1313
#01112:0013000000001300
#01118:00130000
#01115:0000001300000000
#04318:23
#02515:23
#0205b:63
#01352:0013000000130000
#0135b:0000001300000000
#0275b:13
#02758:00000000000000000000000000130000
#03152:13
#03155:00000000000000000000000000000013
#0355b:13
#04358:13
#00952:0053
#00955:00000063
#01552:53
#01752:0000005300000000
#0185b:0000006300000000
#02155:0000001300000000
#0235b:63
#02852:00000000000000000000000000000013
#0295b:00000000000000000000000000000013
#03058:00000000000000000000000000130000
#03052:00000000000000130000000000000000
#03258:00000000000000000000000000000013
#03355:00000000000000000000000000000013
#03455:00000000000000000000000000130000
#03658:0053
#0365b:00000013
#03958:00000000000000000000005300000000
#03952:13
#0395b:0000000000000013
#0375b:00630000
#03752:13000053
#03758:0013
#03855:13000063
#03858:00530000
#0385b:0013
#04152:13530000
#04158:13530000
#0415b:00001363
#04155:00001363
#04252:13530000
#04258:13530000
#04255:0013
#0425b:0013
#0125b:63
#01258:00130000
#02555:13
#0013b0:1323
#002380:1323
#003350:1323
#004320:1323
#0053b0:1323
#006380:1323
#007350:1323
#008320:1323
#009320:0013
#009350:00000033
#010320:23
#0123b0:13
#012380:00230000
#015320:13
#015350:0023
#017320:0000001300000000
#017350:00000023
#0183b0:0000001300000000
#018380:00000023
#0203b0:13
#020380:0023
#0233b0:13
#023380:0023
#024350:00000000000000000000000000130000
#025350:23
#028350:00000000000000000000001300000000
#028340:00000000000000000000000000330000
#028320:00000000000000000000000000000023
#029380:00000000000000000000001300000000
#029390:00000000000000000000000000330000
#0293b0:00000000000000000000000000000023
#030350:00000013000000000000000000000000
#030340:00000000003300000000000000000000
#030320:00000000000000230000000000000000
#031320:00000000000000000000001300000000
#031330:00000000000000000000000000330000
#031350:00000000000000000000000000000023
#0323b0:00000000000000000000001300000000
#0323a0:00000000000000000000000000330000
#032380:00000000000000000000000000000023
#033320:00000000000000000000001300000000
#033330:00000000000000000000000000330000
#033350:00000000000000000000000000000023
#034380:00000000001300000000000000000000
#0343b0:0023
#035350:00000000000000130000000000000000
#035320:0000000000230000
#035380:00000000000000000000000000000013
#0363b0:0023000000000000
#036380:0013
#0363b0:00000023
#0373b0:00130000
#037380:0023
#037320:00000013
#038350:23
#038380:00130000
#0383b0:0023
#038350:00000013
#039320:23
#039380:00000000000000000000001300000000
#0393b0:0000000000000023
#041320:00130000
#041350:0023
#041381:00130000
#0413b1:0023
#0413b1:00000013
#042381:23
#041350:00000013
#042320:23
#042320:00130000
#042350:0023
#042381:00130000
#0423b1:0023
#045341:1222
#046381:1200002200000000
#047361:1222
#0483a1:1200002200000000
#049361:1222
#0503a1:1222
#051341:1222
#052381:1200002200000000
