This file was generated by Ched 2.7.0.0.
#TITLE ""
#ARTIST ""
#DESIGNER ""
#DIFFICULTY 0
#PLAYLEVEL
#SONGID ""
#WAVE ""
#WAVEOFFSET 0
#JACKET ""
#REQUEST "ticks_per_beat 480"
#00002: 4
#BPM01: 100
#00008: 01
#TIL00: ""
#VOLUME: ""
#HISPEED 00
#MEASUREHS 00
#02712:00140000
#02718:0014
#02714:00000014
#0271a:24
#0271f:21
#00918:14
#00914:0014
#00910:41
#0101a:1414
#01012:00140014
#0281a:14
#02812:00140000
#02818:0014
#02814:00000014
#02810:41
#0291a:14
#02918:00000014
#02912:0014
#02916:00140000
#0311a:00140000
#03114:0014
#03118:00000014
#03112:24
#03212:14
#0321a:00140000
#03214:0014
#03218:00000014
#03312:14
#03316:00140000
#0331a:0014
#03314:00000014
#03514:00140000
#03518:0014
#03512:00000014
#0351a:24
#03614:14
#03616:00140000
#03618:0014
#0361a:00000014
#03918:00140000
#03914:0014
#0391a:00000014
#03912:24
#03910:41
#04014:14
#0401a:00140000
#04012:0014
#04018:00000014
#01314:14
#01318:0014
#01118:14
#01114:0014
#01412:1414
#0141a:00140014
#01410:41
#02618:0014
#02614:00000014
#03712:14
#03714:0024
#0381a:14
#03818:0024
#0161a:14
#01618:0014
#01614:00140000
#01612:00000014
#01918:1414
#01914:00140014
#01910:41
#02112:0014
#0211f:11
#0211a:24
#02414:1414
#02418:00140014
#02218:1414
#02214:00140014
#0201a:24
#02014:00240000
#02018:0024
#02012:00000024
#02514:24
#01814:00343400
#01719:00340000
#01718:0034
#03410:41
#0275a:14
#01258:00140000
#03152:14
#0355a:14
#03754:0014
#03752:54
#03952:14
#03858:0014
#0385a:64
#02554:14
#0013a0:1424
#002320:1424
#003380:1424
#004340:1424
#0053a0:1424
#006320:1424
#007380:1424
#008340:1424
#012380:14240000
#015340:14
#015320:0024
#0173a0:14
#017390:00340000
#017380:00003424
#018320:14
#018340:00343424
#023380:14
#0233a0:0024
#030340:14240000
#030380:00001424
#034380:14240000
#034340:00001424
#037320:14
#037340:0024
#0383a0:14
#038380:0024
#041320:14
#041340:00240000
#0413a0:0014
#041380:00000024
#042340:14
#042320:00240000
#042380:0014
#0423a0:00000024
#043340:14
#044320:24
#045380:1424
#046340:1424
#047380:1424
#048340:1424
#049380:1424
#050340:1424
#051380:1424
#052340:1434
#052320:00000000000000000000000034000024
