This file was generated by Ched 2.7.0.0.
#TITLE ""
#ARTIST ""
#DESIGNER ""
#DIFFICULTY 0
#PLAYLEVEL
#SONGID ""
#WAVE ""
#WAVEOFFSET 0
#JACKET ""
#REQUEST "ticks_per_beat 480"
#00002: 4
#BPM01: 180
#00008: 01
#TIL00: ""
#VOLUME: ""
#HISPEED 00
#MEASUREHS 00
#00618:14
#00610:41
#00718:14
#00814:14
#00914:14
#0101a:14
#0111a:14
#01212:14
#01312:14
#01514:14
#01418:14
#02318:14
#0291a:14
#03218:2616
#03210:41
#03418:16
#03412:0016
#01714:14
#01618:14
#01912:14
#0181a:14
#0201a:14
#02518:14
#02414:14
#0271a:14
#02612:14
#02812:14
#03312:1616
#03718:1616
#03612:2616
#03812:16
#03818:0016
#04412:0016
#04418:26
#04410:41
#04518:16
#04512:0016
#04818:1616
#04912:1616
#05212:16
#05218:0016
#05312:16
#05318:0016
#05612:1616
#05718:1616
#05812:16
#05818:0016
#06018:1616
#06112:1616
#06318:0000001600000000
#0801a:14
#08012:14
#08118:0016
#08112:26
#08212:16
#08218:0016
#08512:1616
#08618:1616
#08918:1616
#09012:1616
#09118:16
#09112:0016
#09312:1616
#09418:1616
#09612:0000001600000000
#09712:1426
#0721f:11
#03912:26
#03918:0026
#0831f:21
#06518:34
#06419:0034
#06410:41
#06714:34
#06613:0034
#0691a:34
#06819:0034
#07112:34
#07013:0034
#08410:41
#02210:41
#06358:0000005600000000
#09652:0000006600000000
#09752:5416
#002340:14343434
#003340:34343400
#004320:34
#004340:0034
#005320:24
#021340:14343434
#022340:24
#030340:14
#031340:24
#035380:1626
#040340:1434
#041320:0034
#042340:0034
#043340:24
#046380:1626
#047320:1626
#050380:1600000036003636
#051380:0000002600000000
#054320:1626
#055380:1626
#059320:1626
#062380:16
#062360:0000000036000036
#063370:0036000000000000
#063380:0000003600000000
#0643a0:34
#064390:0034
#065380:3424
#066320:14
#066330:0034
#067340:3424
#068380:14
#068390:0034
#0693a0:3424
#070340:14
#070330:0034
#071320:3424
#0723a0:14
#072380:0034
#073380:34
#0733a0:0024
#074320:14
#074340:0034
#075340:34
#075320:0024
#076380:14
#0763a0:0034
#0773a0:34
#077380:0024
#078340:14
#078320:0034
#079320:34
#079340:0024
#083320:1626
#084380:1626
#087320:1600000036003636
#088320:0000002600000000
#092380:1626
#095320:16
#095340:0000000036000036
#096330:0036000000000000
#096320:0000003600000000
#097320:3426
