This file was generated by Ched 2.7.0.0.
#TITLE ""
#ARTIST ""
#DESIGNER ""
#DIFFICULTY 0
#PLAYLEVEL
#SONGID ""
#WAVE ""
#WAVEOFFSET 0
#JACKET ""
#REQUEST "ticks_per_beat 480"
#00002: 4
#BPM01: 180
#00008: 01
#TIL00: ""
#VOLUME: ""
#HISPEED 00
#MEASUREHS 00
#0721f:11
#0721a:000000000000000000240014
#07216:240000240000000000140014
#07214:0014
#07212:00140000
#07218:0024
#02918:00001300000000130000000000001400
#02915:1300001300000000
#02916:00000014
#02914:0000000000140000
#02912:00231400
#0291b:00230000
#02812:13130013
#0281b:0000130000130000
#02815:0013000013000000
#02818:13000000000000130000000000001300
#0341b:1313
#03412:00131300
#03417:00130000
#03415:0000000000130013
#03418:00000013
#03312:1300000000000000001300000013000000000000000000001300000000000000
#0331b:0000001313000000
#03314:0000000000000000000000130000001300000000000000000000000000000000
#03313:00000000131313130000000000000000
#03318:00000013000000000000000000000000
#03315:0013000000000000
#03216:00130000
#0321b:0000000000000000130000000000000013000000000000000013000000130000
#03217:13
#03212:1300000013000013
#03219:0000000000000000000000000000000000000000000000000000001300000013
#0321a:00000000000000000000000013131313
#03215:00000000000000000000001300000000
#03218:0000000000130000
#03210:41
#05516:0000001400000000
#05517:00140000
#05518:0014000000130013
#05519:14
#05515:00000013
#0541a:0000000014000014
#05418:00140000
#05414:00140000
#05416:14
#05412:14
#04517:0015000000000000000000000000000000000000000000000000000000000000
#04519:2315000000000000
#04516:0000001400000014
#04512:0015000000000000000000000000000000000016000000000000000000000000
#04518:0000000000000000000000000000000000000016000000000000000000000000
#04514:2315000022000000
#0451a:0022
#0421a:0014
#04212:0014
#04216:00000000000000000000000000120000
#04218:00000000000000000034000000120000
#04213:0000000000000000000000000000000000340000000000000000000000000000
#04214:00000000000000000034000000000000
#04219:0000000000000000000000000000000000340000000000000000000000000000
#02013:00000000000000000000000000000000000000000000000000000000000000000000000000000000001400140014001400140014001400140014001400140014
#02014:0000000000000000000000000000000000000000001400140014001400140014
#02012:00000000140000000000141414141414
#0201a:1414
#02016:0014001400000000
#01812:24000000000000000000000000000000240000000000000000000000000000000000000000000000130000000000000000000000001600000016000000160000
#0181b:0000000000000013
#01815:0000001300000000
#01814:00000000000000000000000000000000000000000000000000000000000000000000000000000000000000000000000022000012000000120000001200000000
#01818:00000000000000000000000000000000000000000000000000000000000000000000000000160000001600000016000000000000000000000000000000000000
#0181a:24000000000000000000000000000000240000000000000000000000000000002200001200000012000000120000000000000000000000000000000000000000
#00816:14141414
#00812:002400002400
#0081a:000000000024000000000000
#03612:0000130013130000
#0361b:1300000013000013
#03617:00130000
#03616:13
#03618:00000000000000000000001300000000
#03615:00000013
#07816:000000240000240000240014
#0781a:240000140000000000140014
#07812:1414
#07912:00140014
#07917:001400001400
#0791a:0014
#07915:000000000014000000000000
#07616:000000240000240000240014
#07612:240000140000000000140014
#0761a:1414
#0771a:00140014
#07715:001400001400
#07712:0014
#07717:000000000014000000000000
#0481b:0000131313000000
#04812:1300000000001313
#04817:1300000000000013
#04816:0000001313000000
#07412:000000000000000000240014
#07416:240000240000000000140014
#0741a:14140000
#07418:0014
#07414:0024
#0751a:001400001400
#07516:00141414
#07512:000000000014000000000000
#03115:0012
#03116:0012000000000000
#03118:12
#03019:00000012
#03018:0000001200000000
#03016:00120000
#03012:14
#0301a:14
#0261b:0000130000130000
#02612:00130013
#02617:0000000000000013
#02615:0013000013000000
#02618:13000000000000130000000000000000
#0271b:00131300
#02712:0013000000001300
#02715:0000001300000000
#02518:0000000000130000
#0251b:13130000
#02516:13
#02512:0013
#02414:0000000000000013
#02412:13000013
#02417:1300001300001300
#02419:0000000000130000
#02416:0013000013000000
#0241b:00130000
#0231b:0000001313000013
#02316:0013000000000013
#02312:0013
#02217:0000000000000013
#02212:1313001300000013
#0221b:1313000000130000
#02210:41
#03714:0000001400000000
#03718:0014000000000000
#03716:14140000
#03712:13001414
#0371b:00130000
#0371a:0014
#00318:0014
#00314:1414
#00312:001400000000
#0021a:000000000000140000000014
#00217:00140014
#00212:00140014
#00215:1314
#00118:00000000000000000000130013000013
#00115:00000000000000000000001300001300
#01915:00000013
#01912:00000000000000001300000000000000000000000016000000160000001600000000000000000000130000000000000000000000000000000000000000000000
#0191b:0000001300000000
#01918:00000000001600000016000000160000000000000000000000000000000000000000000000160000001600000016000000000000000000000000000000000000
#0191a:22000012000000120000001200000000000000000000000000000000000000002200001200000012000000120000000000000000000000000000000000000000
#01914:00000000000000000000000000000000220000120000001200000012000000000000000000000000000000000000000000000000000000000000000000000000
#01716:0000000000000000000000130000001300000000000000000000000000000000
#01715:00000000131313130000000000000000
#01714:0000000000000000001300000013000000000000000000000000000000000000
#01712:13000013
#0171b:13
#01718:0013000000000000
#01612:00000000000000000000000000000000240000000000000000000000000000000000000000160000001600000016000000000000000000000000000000000000
#01614:00000000000000000000000000000000000000000000000000000000000000002200001200000012000000120000000000000000000000000000000000000000
#01618:00000000000000000000000000000000000000000000000000000000000000000000000000160000001600000016000000000000000000000000000000000000
#0161a:00000000000000000000000000000000240000000000000000000000000000002200001200000012000000120000000000000000000000000000000000000000
#01616:24
#01512:24130000
#0151b:00000013
#0151a:24
#01416:2400000000000014
#01412:00000013
#01415:0000000000130000
#01418:0013
#0141b:0000001300000000
#01015:00140000
#01014:0014
#01013:00000014
#0101b:13
#01012:13
#01016:000000000000000000000024
#01017:000024
#01018:000000000024000000000000
#01019:002400000000
#01112:14
#01119:00000014
#01118:0014
#01117:00140000
#01116:000000000000000000000024
#01115:000024
#01114:000000000024000000000000
#01113:002400000000
#03916:00002400000024000000143434343434
#0391a:24242400
#03912:24242400
#06316:00002400000024000000001300000000
#06312:0000001300000000
#0631b:0013000000000000
#09516:14141400
#0951a:2400001400000024
#09512:0014000000140000
#0921b:00002313
#09215:0000000000000013
#09212:00002313
#09218:0000000000130000
#09216:0014001400000000
#09219:23
#09214:23
#0921a:00230000
#09213:00230000
#05819:0000000000000013
#05817:00000013
#05814:0000001300000000
#05816:00130000
#0581b:0013
#05812:13
#05918:0000000000000013
#05915:00000013
#05912:2300000000130000
#05916:0014001400000000
#0591b:23
#05919:0023
#0591a:00230000
#05914:0023
#05913:00230000
#09416:0013000000140000
#09412:1300001400000000
#09417:13
#0941b:00130000
#0941a:0000000000000014
#09418:00000014
#09414:0014
#09312:1300000000130000
#0931b:23001313
#09316:0013000013000000
#09317:00130000
#09314:0000001300000013
#09319:0000001300000013
#09115:0000001300000013
#09118:00000013
#09112:13130000
#0911b:0013
#0901b:1300001300001300
#09017:0013000000000000
#09016:13
#09012:00000000130000130000000013000000
#09018:0000000013000013
#09015:0000000000130000
#0891b:1300000000130000
#08912:13001313
#08917:0013000013000000
#08916:00130000
#08919:0000001300000013
#08914:0000001300000013
#08815:0013130000000000
#08818:00000013000026000000260000000000
#08812:0000002600260000
#08517:00131300
#08516:1300001300001300
#08512:0013
#0851b:1300001300000000
#08514:0000000000000013
#08519:0000000000000013
#08319:0013000000000013
#08314:0000000000130013
#08312:13130013
#0831b:0000131313001300
#08316:0013
#08317:13
#0831f:21
#08212:0000000000000013
#08217:0000001200000000
#0821a:14
#08216:24
#08617:0013001300001300
#08616:0000130000130013
#08612:13001313
#0861b:13130000
#08412:0013001300000013
#08415:13130000
#08417:0000000000000013
#0841b:0013001300000000
#08418:13130000
#08410:41
#09616:0014002400000000
#09612:0024000000000000
#0961a:0000002400000000
#08112:2414
#0811a:14
#08116:0024
#07316:00141414
#07312:001400001400
#0731a:000000000014000000000000
#0711a:000000000014000000000014
#07116:00141414
#07112:001400001400
#07114:24
#07018:240000000000000000000014
#07012:000000000014000014000000
#07013:00140000
#07019:001400000000
#06914:140000000000000000000014
#06916:00140000
#06912:001400000000
#06918:001400000000000000000000
#06812:0014
#0681a:240000000000000000000014
#06818:000014
#06816:00140000
#06712:240000000000000000140014
#0671a:000000000014000014000000
#06718:00140000
#06714:001400000000
#06612:000000000014000014000000
#06616:240000140000000000000014
#0661a:141400000000
#06512:000000000014000014000000
#06514:00140000
#06518:001400000000
#0651a:24
#0641a:000000000014000014000000
#06416:240000140000000000000014
#06412:001400000000
#06410:41
#06215:0013000000130000
#06218:00131300
#0621b:0000001300000000
#06212:14
#06216:0000000000000024
#0621a:24
#06116:0000001400140014
#0611a:00140014
#06112:1314
#06117:13
#05612:13130000
#0561b:1313
#05617:00000013
#05619:0000001300000013
#05614:0000001300000013
#05616:0013
#05716:13
#05712:0000130000130000
#0571b:1313
#05718:0000001300000013
#05715:00000000000000130000000013000000
#06017:0013
#06012:1313
#06019:0000001300000013
#06014:0000001300000013
#06016:00000013
#0601b:23130000
#0531a:00000000000014001400001400000000
#05312:00000014000000000000000000001400
#05316:1414
#05219:1313
#05214:1313
#05212:00000000000000000000000000000013
#05216:0000001400000014
#05116:0000000000000014
#05118:0013130000000000
#05115:00000013000000000000000000000000
#05112:0000002300230000
#0511b:0000002300230000
#04917:1300001300000013
#0491b:00130013
#04916:0013000000130000
#04912:1313
#04712:0000000000000000000000130000000000000000000000000000000013000000
#04717:0000000000000000000000130000000000000000000000000000000013000000
#04716:0000000000130000000000000000000000000000000000000000000000000000
#04714:13130000
#0471b:0000000000130000000000000000000000000000000000000000000000000000
#04719:13130000
#04616:0013
#04613:0000000000000013
#04618:0000000000000013
#04617:00130013
#0461b:1313
#04614:0000001300000000
#04612:13130000
#04619:0013000000000000
#0441b:0000000000000000000000000000000000000013000000000000000000000000
#04419:0013
#04414:24000000000000001300001300000000
#04416:0000001400000014
#04418:24
#04410:41
#0381a:1414140000000000
#03816:00140014000000000024002400000000
#03812:0000000024242400
#03515:00000013000000001300000000000000
#03518:00000000130000130000000000000000
#03512:1300001300002900
#0351b:1313000000000000
#01212:00140014
#0121a:1414
#01217:002400002400
#01215:000000000024000000000000
#01312:0013
#0131b:13
#0061b:13
#00612:130024000024000024000024
#00616:00141414
#00610:41
#00916:0013
#0091b:0013
#00917:13
#00912:13
#00716:14141414
#0071a:000024000024000024000024
#02116:00240000
#02112:00002326
#02118:00000026
#0211b:23
#0971a:24
#0051b:00000023
#00512:00000023
#08714:0023
#08719:0000000023000025
#08713:00230023
#0871a:00230023
#08712:2300000000000025
#0871b:23
#05013:0000000000000025
#05018:0000000000000025
#05019:00230023
#05014:00230023
#0501a:0024
#05012:0024
#05016:24
#03456:13
#03457:00130000
#03357:00000013
#03353:00000000636363631300000000000000
#0335a:13
#03352:0000000000000000002300000023000000000000000000005300000000000000
#0335b:0063
#03354:0000000000000000000000230000002300000000000000000000000000000000
#09758:0016
#09752:0016
#04559:63006513000000000000000000000000
#0455a:00000000000000002200001200000000
#04554:63006513000000002200001200000000
#04557:0025000000000000000000000000000000000000000000000000000000000000
#04552:0025000000000000000000000000000000000056000000000000000000000000
#04558:0000000000000000000000000000000000000066000000000000000000000000
#04352:33
#0435b:43
#00452:0014
#0045a:14
#03756:00000014
#03752:13001454
#0375b:00130000
#0375a:0064
#08455:63631300
#08458:53531300
#08452:0023002300000000
#0845b:0023002300000000
#08255:00000016
#08256:14
#08257:0000002200000000
#0825a:64
#06952:001c
#06956:00540000
#05552:0000001400000000
#05556:0000001400000000
#04759:53531300
#04754:53531300
#04752:0000000000000000000000230000000000000000000000000000000000000000
#04756:0000000000230000000000000000000000000000000000000000000000000000
#04757:0000000000000000000000230000000000000000000000000000000000000000
#0475b:0000000000230000000000000000000000000000000000000000000000000000
#04452:00000034000000000000000000000000
#0445a:00000044000000000000000000000000
#04454:24
#04458:24
#0445b:0000000000000000000000000000000000000023000000000000000000000000
#04459:0053
#04052:1c
#0135b:0013
#01352:0013
#00952:53000013
#00957:53000013
#0095b:00136300
#00956:00136300
#02156:00140000
#02152:00001316
#02158:00000016
#0215b:13
#09656:0000006400000000
#09652:0034000000000000
#0965a:0000004400000000
#0055b:00000013
#00552:00000013
#08754:0013
#08759:0000000013000015
#08753:00130000
#0875a:00130000
#08752:1300000000000015
#0875b:13
#0955a:1400000000000044
#09552:0000000000540000
#0935b:1313
#09352:5300000000230000
#09356:0023000063000000
#08852:0000001600160000
#08858:0000001600160000
#08156:0014
#08152:1454
#0815a:64
#0785a:14
#07856:000000000000000000000064
#07652:14
#07656:000000000000000000000054
#07456:14
#07452:000000000000000000000054
#07256:14
#0725a:000000000000000000000064
#07154:14
#07058:14
#0685a:14
#06752:14
#06656:14
#0655a:14
#06456:14
#06356:00001400000014000000002300000000
#06352:0000005300000000
#06256:0000000000000014
#0625a:14
#06255:0000000000630000
#0605b:13
#06057:0053
#06052:5313
#05053:0000000000000015
#05058:0000000000000015
#05056:14
#05152:0000001300130000
#0515b:0000001300130000
#03952:00145400
#0395a:1414
#03956:0000000000240000
#03552:00000019
#03555:0023
#0285b:00130000
#02852:00000013
#0325b:0000000000000000130000000000000000000000000000000023000000230000
#03252:1313
#03259:0000000000000000000000000000000000000000000000000000002300000023
#0325a:00000000000000000000000053535353
#0425a:0064
#04252:0054
#04256:00000000000000000000000000220000
#04258:00000000000000000000000000220000
#02053:00000000000000000000000000000000000000000000000000000000000000000000000000000000005400540054005400540054005400540054005400540054
#02054:0000000000000000000000000000000000000000002400240024002400240024
#02052:00000000000000000000242424242424
#0365b:1313
#03652:00130000
#07952:00000014
#0795a:0014
#0775a:00000014
#07752:0014
#0485b:0063
#04852:53
#03052:14
#0305a:14
#0265b:00130000
#02657:0000000000000053
#02652:00000013
#0275b:00136300
#02752:00000013
#0255b:00630000
#02556:63
#02456:0023000000000000
#02452:53
#02457:0000002300000000
#0245b:00630000
#02356:0063000000000000
#02257:0000000000000053
#02252:0000005300000000
#0225b:0063000000000000
#00358:0054
#00354:0064
#01955:00000063
#01958:00000000002600000026000000260000000000000000000000000000000000000000000000260000002600000026000000000000000000000000000000000000
#0195a:00000062000000620000006200000000000000000000000000000000000000000000006200000062000000620000000000000000000000000000000000000000
#01952:00000000000000000000000000000000000000000026000000260000002600000000000000000000000000000000000000000000000000000000000000000000
#01954:00000000000000000000000000000000000000520000005200000052000000000000000000000000000000000000000000000000000000000000000000000000
#01756:0000000000000000000000230000002300000000000000000000000000000000
#01755:00000000636363630000000000000000
#01754:0000000000000000002300000023000000000000000000000000000000000000
#01652:00000000000000000000000000000000000000000000000000000000000000000000000000260000002600000026000000000000000000000000000000000000
#01654:00000000000000000000000000000000000000000000000000000000000000000000005200000052000000520000000000000000000000000000000000000000
#01658:00000000000000000000000000000000000000000000000000000000000000000000000000260000002600000026000000000000000000000000000000000000
#0165a:00000000000000000000000000000000000000000000000000000000000000000000006200000062000000620000000000000000000000000000000000000000
#01852:00000000000000000000000000000000000000000000000000000000000000000000000000000000000000000000000000000000002600000026000000260000
#01854:00000000000000000000000000000000000000000000000000000000000000000000000000000000000000000000000000000052000000520000005200000000
#01858:00000000000000000000000000000000000000000000000000000000000000000000000000260000002600000026000000000000000000000000000000000000
#0185a:00000000000000000000000000000000000000000000000000000000000000000000006200000062000000620000000000000000000000000000000000000000
#0585b:0013
#05852:13
#09456:0023000000000000
#09452:53
#09457:13
#0915b:0013
#09152:13
#09057:0023000000000000
#0905b:63
#09056:13
#0895b:6300000000230000
#08952:1313
#08957:0023000053000000
#08557:0053
#08556:63
#08652:00005353
#08656:0000000000230023
#08657:0023002300000000
#0865b:63630000
#07356:00001414
#07556:00001414
#05652:13
#0565b:6313
#05656:0063
#05756:13
#0575b:63
#06152:53
#06157:13
#0545a:0014
#05458:00140000
#05456:14
#05352:00000054000000000000000000000000
#0535a:00000000000000000000006400000000
#05356:5464
#05259:0063
#05254:53
#04957:0000002300000023
#0495b:00630063
#04956:0023000000230000
#04952:5353
#04656:0063
#0385a:00640000
#003380:00143400
#0043a0:24
#003341:0014
#004321:3424
#005381:13330000
#0053b1:00003323
#005350:13330000
#005320:00003323
#009370:13
#0093b0:00230000
#009321:13
#009361:00230000
#009361:0013
#009321:00000023
#0093b0:0013
#009370:00000023
#013320:13230000
#0133b1:00132300
#015381:00132300
#015350:00001323
#016340:00000000000000000000000000000000000000000000000000000000000000001200005200000052000000520000005222000000000000000000000000000000
#016320:00000000000000000000000000000000000000000000000000000000000000000000000000560000005600000056000000000000000000000000000000000000
#0163a1:00000000000000000000000000000000000000000000000000000000000000001200005200000052000000520000005222000000000000000000000000000000
#016381:00000000000000000000000000000000000000000000000000000000000000000000000000560000005600000056000000000000000000000000000000000000
#017351:00000000135353532300000000000000
#017341:0000000000000000005300000053000000000000000000000000000000000000
#017361:0000000000000000000000530000005300000000000000000000000000000000
#0173b0:00001323
#0183a0:00000000000000000000000000000000000000000000000000000000000000001200005200000052000000520000005222000000000000000000000000000000
#018380:00000000000000000000000000000000000000000000000000000000000000000000000000560000005600000056000000000000000000000000000000000000
#018341:00000000000000000000000000000000000000000000000000000000000000000000000000000000000000000000000012000052000000520000005200000052
#018321:00000000000000000000000000000000000000000000000000000000000000000000000000000000000000000000000000000000005600000056000000560000
#019341:22
#0193a0:12000052000000520000005200000052220000000000000000000000000000000000000000000000000000000000000000000000000000000000000000000000
#019380:00000000005600000056000000560000000000000000000000000000000000000000000000000000000000000000000000000000000000000000000000000000
#019341:00000000000000000000000000000000120000520000005200000052000000522200000000000000000000000000000000000000000000000000000000000000
#019321:00000000000000000000000000000000000000000056000000560000005600000000000000000000000000000000000000000000000000000000000000000000
#0193a0:00000000000000000000000000000000000000000000000000000000000000001200005200000052000000520000005222000000000000000000000000000000
#019380:00000000000000000000000000000000000000000000000000000000000000000000000000560000005600000056000000000000000000000000000000000000
#019351:00000013
#020321:23
#020321:00000000000000000000145454545454
#020331:00000000000000000000000000000000000000000000000000000000000000000000000000000000005400540054005400540054005400540054005400540054
#020341:0000000000000000000000000000000000000000005400540054005400540054
#021321:24
#0223b1:0013000000000000
#022371:0000002300000000
#022320:0000001300000000
#022360:0000000000230000
#022370:0000000000000013
#0233b0:0023000000000000
#023361:0013000000000000
#023321:0000002300000000
#024321:13230000
#024361:0053000000000000
#0243b0:00132300
#024370:0000005300000000
#025360:13
#025320:00230000
#0253b1:00130000
#025371:0023
#025351:0000000000000000000000000000000000000000000000001353535353535353
#025341:00000000000000000000000000000000000000000000000000000000000000000000000000000000000000000000000000530053005300530053005300530053
#026351:23
#026371:0000000000000013
#0273b1:0023000000000000
#0273b1:0013
#027371:00000023
#030351:00001222
#031391:00122200
#0323a1:00000000000000000000000013535353
#0323b1:0000000000000000000000000000000000000000000000000053000000530000
#032391:0000000000000000000000000000000000000000000000000000005300000053
#0333a1:23
#033331:00000000135353532300000000000000
#033321:0000000000000000005300000053000000000000000000000000000000000000
#033341:0000000000000000000000530000005300000000000000000000000000000000
#0333b0:0013
#033370:00000023
#033321:00000013
#034361:23
#035351:0013
#035321:00000029
#0373a1:0014
#037361:00000024
#037320:00000014
#038360:24
#0383a0:00140000
#038360:0024
#039320:0014
#039360:00000000000000000000343434343434
#040320:2c
#040380:0014
#040390:0000000000000000000000000000000000340000000000000000000000000000
#0403a0:00000000000000000034000000000000
#0423a0:0034
#042390:0000000000000000000000000000000000340000000000000000000000000000
#042380:00000000000000000034000000520000
#0433b0:23
#041341:0014
#041331:0000000000000000000000000000000000340000000000000000000000000000
#041321:00000000000000000034000000000000
#042321:0034
#042331:0000000000000000000000000000000000340000000000000000000000000000
#042341:00000000000000000034000000000000
#042361:00000000000000000000000000520000
#043321:23
#044341:14
#044321:00000024000000000000000000000000
#044380:14
#0443a0:00000024000000000000000000000000
#044390:00000000000000001300002300000000
#0443b0:0000000000000000000000000000000000000053000000000000000000000000
#045390:130000000000000000000000000000000000000000000000000000000000000000000000000000000000000000000000000000000000000000000000000000000000000000000000000000000000000000000000000000000000000000000000000000000000000000000000000000000000000000000000530000000000000000000000000000000000000000000000000000000000000000000000000000000000000000000000000000000000000000000000000000000000000000000000000000000000000000000000000000000000000000000000000000000000000000000000000000000000000000000053550000000000000000000000000000000000000000000000000000000000000000000000000000000000000000000000000000000000000000000000000000000000000000000000000000000000000000000000000000000000000000000000000000000000000000000000000000000000000000000000230000000000000000000000000000000000000000000000000000000000000000000000000000000000000000000000000000000000000000000000000000000000000000000000000000000000000000000000000000000000000000000000000000000000000000000000000000000000000000000000000000000000000000000000000000000000000000000000000000000000000000000000000000000000000000000000000000000000000000000000000000000000000000000000000000000000000000000000000000000000000000000000000000000000000000000000000000000000000000000000000000000000000000000000000000000000000000000000000000000000000000000000000000000000000000000000000000000000000000000000000000000000000000000000000000000000000000000000000000000000000000000000000000000000000000000000000000000000000000000000000000000000000000000000000000000000000000000000000000000000000000000000000000000000000000000000000000000000000000000000000000000000000000000000000000000000000000000000000000000000000000000000000000000000000000000000000000000000000000000000000000000000000000000000000000000000000000000000000000000000000000000000000000000000000000000000000000000000000000000000000000000000000000000000000000000000000000000000000000000000000000000000000000000000000000000000000000000000000000000000000000000000000000000000000000000000000000000000000000000000000000000000000000000000000000000000000000000000000000000000000000000000000000000000000000000000000000000000000000000000000000000000000000000000000000000000000000000000000000000000000000000000000000000000000000000000000000000000000000000000000000000000000000000000000000000000000000000000000000000000000000000000000000000000000000000000000000000000000000000000000000000000000000000000000000000000000000000000000000000000000000000000000000000000000000000000000000000000000000000000000000000000000000000000000000000000000000000000000000000000000000000000000000000000000000000000000000000000000000000000000000000000000000000000000000000000000000000000000000000000000000000000000000000000000000000000000000000000000000000000000000000000000000000000000000000000000000000000000000000000000000000000000000000000000000000000000000000000000000000000000000000000000000000000000000000000000000000000000000000000000000000000000000000000000000000000000000000000000000000000000000000000000000000000000000000000000000000000000000000000000000000000000000000000000000000000000000000000000000000000000000000000000000000000000000000000000000000000000000000000000000000000000000000000000000000000000000000000000000000000000000000000000000000000000000000000000000000000000000000000000000000000000000000000000000000000000000000000000000000000000000000000000000000000000000000000000000000000000000000000000000000000000000000000000000000000000000000000000000000000000000000000000000000000000000000000000000000000000000000000000000000000000000000000000000000000000000000000000000000000000000000000000000000000000000000000000000000000000000000000000000000000000000000000000000000000000000000000000000000000000000000000000000000000000000000000000000000000000000000000000000000000000000000000000000000000000000000000000000000000000000000000000000000000000000000000000000000000000000000000
#045370:0055000000000000000000000000000000000000000000000000000000000000
#045341:130000000000000000000000000000000000000000000000000000000000000000000000000000000000000000000000000000000000000000000000000000000000000000000000000000000000000000000000000000000000000000000000000000000000000000000000000000000000000000000000530000000000000000000000000000000000000000000000000000000000000000000000000000000000000000000000000000000000000000000000000000000000000000000000000000000000000000000000000000000000000000000000000000000000000000000000000000000000000000000053550000000000000000000000000000000000000000000000000000000000000000000000000000000000000000000000000000000000000000000000000000000000000000000000000000000000000000000000000000000000000000000000000000000000000000000000000000000000000000000000230000000000000000000000000000000000000000000000000000000000000000000000000000000000000000000000000000000000000000000000000000000000000000000000000000000000000000000000000000000000000000000000000000000000000000000000000000000000000000000000000000000000000000000000000000000000000000000000000000000000000000000000000000000000000000000000000000000000000000000000000000000000000000000000000000000000000000000000000000000000000000000000000000000000000000000000000000000000000000000000000000000000000000000000000000000000000000000000000000000000000000000000000000000000000000000000000000000000000000000000000000000000000000000000000000000000000000000000000000000000000000000000000000000000000000000000000000000000000000000000000000000000000000000000000000000000000000000000000000000000000000000000000000000000000000000000000000000000000000000000000000000000000000000000000000000000000000000000000000000000000000000000000000000000000000000000000000000000000000000000000000000000000000000000000000000000000000000000000000000000000000000000000000000000000000000000000000000000000000000000000000000000000000000000000000000000000000000000000000000000000000000000000000000000000000000000000000000000000000000000000000000000000000000000000000000000000000000000000000000000000000000000000000000000000000000000000000000000000000000000000000000000000000000000000000000000000000000000000000000000000000000000000000000000000000000000000000000000000000000000000000000000000000000000000000000000000000000000000000000000000000000000000000000000000000000000000000000000000000000000000000000000000000000000000000000000000000000000000000000000000000000000000000000000000000000000000000000000000000000000000000000000000000000000000000000000000000000000000000000000000000000000000000000000000000000000000000000000000000000000000000000000000000000000000000000000000000000000000000000000000000000000000000000000000000000000000000000000000000000000000000000000000000000000000000000000000000000000000000000000000000000000000000000000000000000000000000000000000000000000000000000000000000000000000000000000000000000000000000000000000000000000000000000000000000000000000000000000000000000000000000000000000000000000000000000000000000000000000000000000000000000000000000000000000000000000000000000000000000000000000000000000000000000000000000000000000000000000000000000000000000000000000000000000000000000000000000000000000000000000000000000000000000000000000000000000000000000000000000000000000000000000000000000000000000000000000000000000000000000000000000000000000000000000000000000000000000000000000000000000000000000000000000000000000000000000000000000000000000000000000000000000000000000000000000000000000000000000000000000000000000000000000000000000000000000000000000000000000000000000000000000000000000000000000000000000000000000000000000000000000000000000000000000000000000000000000000000000000000000000000000000000000000000000000000000000000000000000000000000000000000000000000000000000000000000000000000000000000000000000000000000000000000000000000000000000000000000000000000000000000000000000000000000000000000000000000000000000000000000000
#045321:0055000000000000000000000000000000000000000000000000000000000000
#0453a1:00000000000000001200002200000000
#045381:0000000000000000000000000000000000000056000000000000000000000000
#045340:00000000000000001200002200000000
#045320:0000000000000000000000000000000000000056000000000000000000000000
#046360:0013
#046320:00000023
#047390:13332300
#0473b0:0000000000530000000000000000000000000000000000000000000000000000
#047370:0000000000000000000000530000000000000000000000000000000000000000
#047341:13332300
#047361:0000000000530000000000000000000000000000000000000000000000000000
#047321:0000000000000000000000530000000000000000000000000000000000000000
#048321:13
#048361:00230000
#0483b1:0013
#048371:00000023
#049321:13230000
#049361:0053000000000000
#0493b0:00132300
#049370:0000005300000000
#049321:00001323
#049361:0000000000530000
#0493b0:00000013
#049370:0000000000000053
#0503b0:23
#052340:13
#052360:00000023000000000000000000000000
#0523b1:00000013000023000000000000000000
#052391:0013
#052371:00000000000000000000002300000000
#052320:00000000000000000000001300002300
#053360:14
#0533a0:00000024000000000000000000000000
#053321:00000014000000000000000000000000
#053361:0000002400000000
#053361:0014
#053321:00000000000000000000002400000000
#0533a0:00000000000000000000001400000000
#053360:0000000000000024
#054360:0000000014000054
#055320:0000002400000000
#0563b0:13
#056370:00230000
#056360:0013
#056320:00000023
#0573b0:13
#057370:00230000
#0583b0:13230000
#058320:00001323
#060320:13
#060360:00230000
#060370:0013
#0603b0:00000023
#061320:13
#061360:00230000
#062350:0000000000130000
#062320:0000000000000023
#063320:0000001300000000
#063360:00000000000000000000005300000000
#064320:24
#064360:000000142400
#065360:000000142400
#066360:000000142400
#067360:000000142400
#068340:000000000000000000140024
#069360:00140000
#069320:002c
#0703a0:000000142400
#0723a0:000000000000000000000014
#073360:002400000000
#074320:000000000000000000000014
#075360:002400000000
#076360:000000000000000000000014
#0773a0:002400000000
#078360:000000000000000000000014
#079320:002400000000
#0813a0:14
#081360:0024
#081321:0014
#082361:24
#0823a0:14
#082370:0000005200000000
#082350:00000026
#084350:13332300
#084320:0053005300000000
#084381:13332300
#0843b1:0053005300000000
#085361:13
#085321:00230000
#085371:0013
#0853b1:00000023
#0863b1:13332300
#086371:0053005300000000
#086320:00001333
#086360:0000000000530053
#087320:23
#0893b0:13230000
#089370:0053000000000000
#089370:00001323
#0893b0:0000000000530000
#0903b0:13230000
#090370:0053000000000000
#0913b0:13230000
#091320:00001323
#093320:13230000
#093360:0053000000000000
#093360:00001323
#093320:0000000000530000
#094320:13230000
#094360:0053000000000000
#095320:0000000000140000
#095360:0000000000000024
#096360:0000001400000000
#097320:34000000000000362600000000000000
#097330:000000000000000000000000000000000000000000000000000000000000340000000000000000000000000000000000000000000000000000000000000000000000000000000000000000000000000000000000000000000000000000000000000000000000000000000000000000000000000000000000000000000000000000000000000000000000000000000000000000000000000000000000000000000000000000000000000000000000000000000000000000000000000000000000000000000000000000000000000000000000000000000000000000000000000000000000000000000000000000000000000000000000000000000000000000000000000000000000000000000000000000000000000000000000000000000000000000000000000000000000000000000000000000000000000000000000000000000000000000000000000000000000000000000000000000000000000000000000000000000000000000000000000000000000000000000000000000000000000000000000000000000000000000000000000000000000000000000000000000000000000000000000000000000000000000000000000000000000000000000000000000000000000000000000000000000000000000000000000000000000000000000000000000000000000000000000000000000000000000000000000000000000000000000000000000000000000000000000000000000000000000000000000000000000000000000000000000000000000000000000000000000000000000000000000000000000000000000000000000000000000000000000000000000000000000000000000000000000000000000000000000000000000000000000000000000000000000000000000000000000000000000000000000000000000000000000000000000000000000000000000000000000000000000000000000000000000000000000000000000000350000000000000000000000000000000000000000000000000000000000000000000000000000000000000000000000000000000000000000000000000000000000000000000000000000000000000000000000000000000000000000000000000000000000000000000000000000000000000000000055000000000000000000000000000000000000000000000000000000000000000000000000000000000000000000000000000000000000000000000000000000000000000000000000000000000000000000000000000000000000000000000000000000000000000000000000000000000000000000000000000000000000000000000000000000000000000000000000000000000000000000000000000000000000000000000000000000000000000000000000000000000000000000000000000000000000000000000000000000000000000000000000000000000000000000000000000000000000000000000000000000000000000000000000000000000000000000000000000000000000000000000000000000000000000000000000000000000000000000000000000000000000000000000000000000000000000000000000000000000000000000000000000000000000000000000000000000000000000000000000000000000000000000000000000000000000000000000000000000000000000000000000000000000000000000000000000000000000000000000000000000000000000000000000000000000000000000000000000000000000000000000000000000000000000000000000000000000000000000000000000000000000000000000000000000000000000000000000000000000000000000000000000000000000000000000000000000000000000000000000000000000000000000000000000000000000000000000000000000000000000000000000000000000000000000000000000000000000000000000000000000000000000000000000000000000000000000000000000000000000000000000000000000000000000000000000000000000000000000000000000000000000000000000000000000000000000000000000000000000000000000000000000000000000000000000000000000000000000000000000000000000000000000000000000000000000000000000000000000000000000000000000000000000000000000000000000000000000000000000000000000000000000000000000000000000000000000000000000000000000000000000000000000000000000000000000000000000000000000000000000000000000000000000000000000000000000000000000000000000000000000000000000000000000000000000000000000000000000000000000000000000000000000000000000000000000000000000000000000000000000000000000000000000000000000000000000000000000000000000000000000000000000000000000000000000000000000000000000000000000000000000000000000000000000000000000000000000000000000000000000000000000000000000000000000000000000000000000000000000000000000000000000000000000000000000000000000000000000000000000
#097340:000000000000000000000000000000000000000000000000000000000000000000000000000000000000000000000000000000000000000000000000340000000000000000000000000000000000000000000000000000000000000000000000000000000000000000000000000000000000000000000000000000000000000000000000000000000000000000000000000000000000000000000000000000000000000000000000000000000000000000000000000000000000000000000000000000000000000000000000000000000000000000000000000000000000000000000000000000000000000000000000000000000000000000000000000000000000000000000000000000000000000000000000000000000000000000000000000000000000000000000000000000000000000000000000000000000000000000000000000000000000000000000000000000000000000000000000000000000000000000000000000000000000000000000000000000000000000000000000000000000000000000000000000000000000000000000000000000000000000000000000000000000000000000000000000000000000000000000000000000000000000000000000000000000000000000000000000000000000000000000000000000000000000000000000000000000000000000000000000000000000000000000000000000000000000000000000000000000000000000000000000000000000000000000000000000000000000000000000000000000000000000000000000000000000000000000000000000000000000000000000000000000000000000000000000000000000000000000000000000000000000000000000000000000000000000000000000000000000000000000000000000000000000000000000000000000000000000000000000000000000000000000000000000000000000000000000000000000000000000000054000000000000000000000000000000000000000000000000000000000000000000000000000000000000000000000000000000000000000000000000000000000000000000000000000000000000000000000000000000000000000000000000000000000000000000000000000000000000000000000000000000000000000000000000000000000000000000000000000000000000000000000000000000000000000000000000000000000000000000000000000000000000000000000000000000000000000000000000000000000000000000000000000000000000000000000000000000000000000000000000000000000000000000000000000000000000000000000000000000000000000000000000000000000000000000000000000000000000000000000000000000000000000000000000000000000000000000000000000000000000000000000000000000000000000000000000000000000000000000000000000000000000000000000000000000000000000000000000000000000000000000000000000000000000000000000000000000000000000000000000000000000000000000000000000000000000000000000000000000000000000000000000000000000000000000000000000000000000000000000000000000000000000000000000000000000000000000000000000000000000000000000000000000000000000000000000000000000000000000000000000000000000000000000000000000000000000000000000000000000000000000000000000000000000000000000000000000000000000000000000000000000000000000000000000000000000000000000000000000000000000000000000000000000000000000000000000000000000000000000000000000000000000000000000000000000000000000000000000000000000000000000000000000000000000000000000000000000000000000000000000000000000000000000000000000000000000000000000000000000000000000000000000000000000000000000000000000000000000000000000000000000000000000000000000000000000000000000000000000000000000000000000000000000000000000000000000000000000000000000000000000000000000000000000000000000000000000000000000000000000000000000000000000000000000000000000000000000000000000000000000000000000000000000000000000000000000000000000000000000000000000000000000000000000000000000000000000000000000000000000000000000000000000000000000000000000000000000000000000000000000000000000000000000000000000000000000000000000000000000000000000000000000000000000000000000000000000000000000000000000000000000000000000000000000000000000000000000000000000000000000000000000000000000000000000000000000000000000000000000000000000000000000000000000000000000000000000000000000000000000000000000000000000000000000000000000000000000000000000000000000000000000000000000000000000000000000000000000000000000000
#0973a1:14
#097391:00340000000000000000000000000000000000000000000000000000000000000000000000000000000000000000000000000000000000000000000000000000
#097381:000000000000000000000000000000000000000000000000000000000000000000000000000000000000000000000000000000000000000000000000340000000000000000000000000000000000000000000000000000000000000000000000000000000000000000000000000000000000000000000000000000000000000000000000000000000000000000000000000000000000000000000000000000000000000000000000000000000000000000000000000000000000000000000000000000000000000000000000000000000000000000000000000000000000000000000000000000000000000000000000000000000000000000000000000000000000000000000000000000000000000000000000000000000000000000000000000000000000000000000000000000000000000000000000000000000000000000000000000000000000000000000000000000000000000000000000000000000000000000000000000000000000000000000000000000000000000000000000000000000000000000000000000000000000000000000000000000000000000000000000000000000000000000000000000000000000000000000000000000000000000000000000000000000000000000000000000000000000000000000000000000000000000000000000000000000000000000000000000000000000000000000000000000000000000000000000000000000000000000000000000000000000000000000000000000000000000000000000000000000000000000000000000000000000000000000000000000000000000000000000000000000000000000000000000000000000000000000000000000000000000000000000000000000000000000000000000000000000000000000000000000000000000000000000000000000000000000000000000000000000000000000000000000000000000000000000000000000000000000000054350000000000000000000000000000000000000000000000000000000000000000000000000000000000000000000000000000000000000000000000000000000000000000000000000000000000000000000000000000000000000000000000000000000000000000000000000000000000000000000055360000000000000000000000000000000000000000000000000000000000000000000000000000000000000000000000000000000000000000000000000000000000000000000000000000000000000000000000000000000000000000000000000000000000000000000000000000000000000000000000260000000000000000000000000000000000000000000000000000000000000000000000000000000000000000000000000000000000000000000000000000000000000000000000000000000000000000000000000000000000000000000000000000000000000000000000000000000000000000000000000000000000000000000000000000000000000000000000000000000000000000000000000000000000000000000000000000000000000000000000000000000000000000000000000000000000000000000000000000000000000000000000000000000000000000000000000000000000000000000000000000000000000000000000000000000000000000000000000000000000000000000000000000000000000000000000000000000000000000000000000000000000000000000000000000000000000000000000000000000000000000000000000000000000000000000000000000000000000000000000000000000000000000000000000000000000000000000000000000000000000000000000000000000000000000000000000000000000000000000000000000000000000000000000000000000000000000000000000000000000000000000000000000000000000000000000000000000000000000000000000000000000000000000000000000000000000000000000000000000000000000000000000000000000000000000000000000000000000000000000000000000000000000000000000000000000000000000000000000000000000000000000000000000000000000000000000000000000000000000000000000000000000000000000000000000000000000000000000000000000000000000000000000000000000000000000000000000000000000000000000000000000000000000000000000000000000000000000000000000000000000000000000000000000000000000000000000000000000000000000000000000000000000000000000000000000000000000000000000000000000000000000000000000000000000000000000000000000000000000000000000000000000000000000000000000000000000000000000000000000000000000000000000000000000000000000000000000000000000000000000000000000000000000000000000000000000000000000000000000000000000000000000000000000000000000000000000000000000000000000000000000000000000000000000000000000000000000000000000000000000000000000000000000000000000000000000000000000000000000000
