This file was generated by Ched 2.7.0.0.
#TITLE ""
#ARTIST ""
#DESIGNER ""
#DIFFICULTY 0
#PLAYLEVEL
#SONGID ""
#WAVE ""
#WAVEOFFSET 0
#JACKET ""
#REQUEST "ticks_per_beat 480"
#00002: 4
#BPM01: 180
#00008: 01
#TIL00: ""
#VOLUME: ""
#HISPEED 00
#MEASUREHS 00
#03212:0000140000130000
#03215:00000013
#03218:0000000014000013
#0321a:14
#03210:41
#03318:00131300
#03314:14
#0331b:0013000000000000
#03315:0000001300000000
#03415:0013
#03418:0000000000130000
#03412:14000013
#0341b:0000000000000013
#0341a:00140000
#0381a:1414140000000000
#03814:00140014000000000000000000000000
#03812:0000000024242400
#03818:00000000000000000024002400000000
#04418:2600130000000013
#04414:0013
#04415:0000001300001300
#04419:0013
#04412:26
#04410:41
#0461b:13
#04618:0013000013000000
#04615:0000130000000013
#04612:0000001300000000
#04718:0000130000000013
#04712:0000000000000013
#0471b:13
#04515:0000001300000013
#04513:13
#0451a:13
#04518:00130013
#0451b:0023
#04512:0023
#04818:1300000000000013
#04812:1300000000000013
#04815:0000001313000000
#0481b:0000001313000000
#05118:0014000000000013
#05114:0014000000000000
#0511a:0000000000240000
#05112:0000000000240000
#05215:1300001300000000
#05218:0013
#0521b:0000000000000013
#05312:1300001300000014
#0531b:0013
#05418:14
#05414:00140000
#0541a:0014
#05412:0000000000000014
#05518:1400000000000013
#05514:0014000000000000
#0551a:00140000
#05516:0000001400000000
#05512:00000013
#0551b:0000000000130000
#05718:0000001313000013
#05715:13000000000000130000000013000000
#05712:0000000000130000
#05615:13
#05618:0000001300000013
#05612:0013
#06112:0000001300000000
#06117:0013
#06114:0000000000130000
#06119:00000013
#06116:0000000000000013
#06118:13
#06215:00130000
#06212:0000001300130000
#0621b:2313
#06218:0013000000000026
#06812:14
#0681a:0014
#06816:00140014
#06912:14140000
#0691a:00140000
#07312:00000014
#07318:0014
#0731a:00140000
#07314:000000000014000000000000
#0581b:13
#05812:0000001300000000
#05815:0000000000000013
#05818:0013
#0391a:24000000000000002400143434343434
#03912:24000000000000002400143434343434
#03918:0024002400000000
#03914:00240000
#0161b:00000013
#01618:26
#01615:00260000
#01612:0026
#0021a:00140000
#00214:00140000
#00213:0014
#00219:0014
#00212:00000014
#00218:00000014
#00312:14
#00314:0014
#00318:14
#0031a:0014
#00319:00140000
#00313:00140000
#02215:1300000000000013
#02218:0013000000000000
#0221b:0000001300000000
#02210:41
#02315:0013
#02318:0000001300000000
#02312:0000000000000013
#02615:00001313
#02618:13130000
#02612:0013000000000000
#0261b:0000000000130013
#02715:0000001300000000
#02712:0013000000000000
#0271b:0013
#02718:00130000
#0291b:13
#02914:00001414
#02918:0000230000140014
#02915:0013000000000000
#03014:14
#03018:00120000
#03016:0000001200000000
#00414:0014
#0041a:0014
#0051a:13
#00513:13
#0051b:00000023
#00512:00000023
#00918:14
#00914:0014
#0131a:14
#01312:14
#01318:00140000
#01314:00140000
#01518:2613
#01515:00000013
#01512:00260000
#01418:26001313
#01415:0000001300130013
#01718:0013000000000000
#01712:13
#01715:00130000
#0191b:13
#01918:00130000
#01915:0013
#01912:00000013
#02018:13130000
#02015:0013001300000000
#0201b:0013
#02012:0000000000130000
#02418:0000000000130013
#02415:00001313
#0241b:13
#02515:13
#02512:00130000
#02818:00001313
#02815:13130000
#0281b:0013000000000000
#02812:0000000000130013
#03116:12
#03118:0012000000000000
#0361b:0000000000130000
#03618:00000013
#03615:0000000000000013
#03612:14
#0361a:00140000
#03614:0014
#03715:00131300
#03718:1400001300000000
#03712:0013000000000000
#03512:00130000
#03515:1300001300000000
#03518:0013000013000000
#0351b:00000023
#0431a:14
#04312:14
#04918:13
#04912:13
#04913:00130000
#04919:00130000
#0491a:0013
#04914:0013
#04915:00000013
#0491b:00000013
#0591b:0000000000130000
#05918:00000013
#05915:0000000000000013
#05916:00240000
#05912:0024
#0591a:24
#06018:13
#06015:0000001300000013
#0601b:0013
#06612:1414
#06616:00140000
#0671a:1414
#06716:00140000
#07012:1414
#07016:00140014
#0711a:1414
#07116:00140014
#06412:14
#06416:00341400
#06410:41
#0651a:14
#06516:00341400
#07212:14000024
#07214:00140000
#07218:00000014
#0721f:11
#0721a:00240000
#0751a:00000014
#07514:0014
#07512:00140000
#07518:000000000014000000000000
#07418:00140000
#07414:00000014
#07412:00240000
#0741a:00000024
#07614:00140000
#07618:00000014
#07612:14000024
#07616:0014
#0761a:00240000
#0771a:140014
#07714:00140014
#07712:0014
#07718:000000000014000000000000
#07818:00140000
#07814:00000014
#0781a:14000024
#07816:0014
#07812:00240000
#07912:140014
#07918:00140014
#0791a:0014
#07914:000000000014000000000000
#08212:2414
#0821a:2414
#08218:0000000000000013
#08215:00000013
#08312:13000013
#08315:0013000000130000
#08318:0000130013000013
#0831b:0000001300000000
#0831f:21
#08415:0000130000000013
#0841b:0000000000000013
#08412:13
#08410:41
#08515:1300000000000013
#0851b:1300000000000013
#08518:0000001313000000
#08512:0000001313000000
#08615:13
#0861b:13
#0861a:00130000
#08614:00130000
#08613:0013
#08619:0013
#08618:00000013
#08612:00000013
#08814:0014000000000000
#08818:0014000000000000
#08812:0000000000240000
#0881a:0000000000240000
#09015:0000001313000013
#09018:13000000000000130000000013000000
#0901b:0000000000130000
#08918:13
#08915:0000001300000013
#0891b:0013
#0941b:0000001300000000
#09416:0013
#09419:0000000000130000
#09414:00000013
#09417:0000000000000013
#09415:13
#09518:00130000
#0951b:0000001300130000
#09512:2300000013000026
#09515:0013000000000000
#09112:13
#0911b:0000001300000000
#09118:0000000000000013
#09115:0013
#09212:2400000000130000
#09215:00000013
#09218:0000000000000013
#09216:00240000
#0921a:0024
#09315:13
#09318:0000001300000013
#09312:0013
#0501a:2400000024002424
#05014:0024
#05012:2400240000002424
#05018:00240000
#08114:24
#08118:24
#08113:0024
#08119:0024
#02115:23
#02112:0023
#0211b:00000023
#02118:00230000
#01818:2626
#01812:00260026
#06312:0026000000000000
#06318:0000002600000000
#08712:2400000024002424
#08718:0024
#0871a:2400240000002424
#08714:00240000
#09618:0026000000000000
#09612:0000002600000000
#09719:24
#09713:24
#00610:41
#04014:00000000000000000054000000000000
#04012:0054
#04013:0000000000000000000000000000000000540000000000000000000000000000
#04118:00000000000000000054000000000000
#0411a:0054
#04119:0000000000000000000000000000000000540000000000000000000000000000
#04214:00000000000000000054000000000000
#04212:0054
#04213:0000000000000000000000000000000000540000000000000000000000000000
#0325a:14
#03252:00140000
#03258:0014
#04058:14
#04054:14
#0475b:6313
#04758:00530000
#05255:63
#05258:0053
#05458:14
#05454:00140000
#0545a:0014
#05556:0000001400000000
#05655:63
#05652:0053
#06258:0000000000000016
#06958:0016
#06952:00541600
#0695a:00640000
#07352:00000014
#07358:0014
#08154:14
#08158:14
#08153:0014
#08159:0014
#02155:13
#02152:0013
#0215b:00000013
#02158:00130000
#00354:0064
#0035a:0064
#0275b:0063
#03054:14
#0055b:00000013
#00552:00000013
#00458:14
#00452:14
#0045a:0014
#00454:0014
#0095a:00140000
#00952:00000014
#00958:54
#00954:0064
#00754:00000000000000000000000000000014
#00658:00000000000000000000000000000014
#0135a:6414
#01352:5414
#01358:00540000
#01354:00640000
#0105a:00000000000000000000000000000014
#01152:00000000000000000000000000000014
#02052:0000000000530000
#02258:0053000000000000
#0225b:0000006300000000
#02255:0000000000000063
#0245b:63
#02555:63
#02552:00530000
#03354:14
#03358:0053
#0335b:00000013
#03452:14
#0345a:00140000
#03652:14
#0365a:00140000
#03654:0014
#03758:14
#03755:0063
#03752:00000013
#03558:0053
#0355b:00000013
#0395a:0000000000640000
#03952:0000000000540000
#04458:16
#04452:16
#04459:0013
#04454:0013
#04658:0053
#0515a:0000001400140000
#05158:0024000000000000
#05154:0024000000000000
#05152:0000001400140000
#0505a:0000000000000064
#05052:0000000000000054
#04553:13
#0455a:13
#0455b:0013
#04552:0013
#05352:53
#0535b:0063
#05755:63
#05858:0053
#06058:53
#0605b:0063
#06158:53
#06352:0016000000000000
#06358:0000001600000000
#06652:5454
#06656:00640000
#0675a:6464
#06756:00540000
#07052:5454
#07056:00640024
#0715a:6464
#07156:00540024
#06452:54
#06456:0064
#0655a:64
#06556:0054
#0755a:00000014
#07554:0014
#07754:00000014
#07752:0014
#07958:00000014
#0795a:0014
#08252:1414
#0825a:1414
#08455:00630000
#08452:5313
#08854:0024000000000000
#08858:0024000000000000
#08852:0000001400140000
#0885a:0000001400140000
#08752:0000000000000054
#0875a:0000000000000064
#08958:53
#0895b:0063
#09058:53
#09155:0063
#09355:63
#09352:0053
#09455:63
#09552:0000000000000016
#09658:0016000000000000
#09652:0000001600000000
#09759:54
#09753:64
#09752:0016
#09758:0016
#0033a0:0014
#004380:24
#003341:0014
#004321:24
#005381:00130000
#0053b1:00003323
#005350:00130000
#005320:00003323
#0063a0:143400343400
#006380:000000000000000000000000340000000000000034000000000000000000000000000000340000000000000000240000
#007320:001400343400
#007340:000000000000000000000000340000000000000034000000000000000000000000000000340000000000000000240000
#0083a0:001400343400
#008380:000000340034000000340000
#009380:34
#0093a0:00240000
#009340:0014
#009320:00000024
#010380:143400343400
#0103a0:000000000000000000000000340000000000000034000000000000000000000000000000340000000000000000240000
#011340:001400343400
#011320:000000000000000000000000340000000000000034000000000000000000000000000000340000000000000000240000
#012380:001400343400
#0123a0:000000340034000000340000
#0133a0:3424
#013380:00340000
#013321:1424
#013341:00340000
#017321:00001323
#0173b0:00001323
#020320:0000000000130000
#021350:23
#022380:0013000000230000
#0223b0:0000003300000000
#022350:0000000000000013
#023320:0023000000000000
#0243b0:13
#024380:00230000
#025350:1323
#025320:00330000
#0273b0:0013
#027380:00000023
#030380:00001222
#031360:00122200
#033380:0013
#0333b0:00000023
#035380:0013
#0353b0:00000023
#037350:0013
#037320:00000023
#0393a0:00000000000000001400343434343434
#040380:24
#039321:00000000000000001400343434343434
#040341:24
#046381:0013
#0463b1:00000023
#0473b1:1323
#047381:00330000
#0503a1:0000000000000014
#051381:0054000000000000
#0513a1:0000002400000000
#050320:0000000000000014
#051340:0054000000000000
#051320:0000002400000000
#052350:13
#052320:00000023000000000000000000000000
#052380:0013
#0523b0:00000000000000000000002300000000
#053320:13
#053350:00000023000000000000000000000000
#0533b0:0013
#053380:00000000000000000000002300000000
#056350:13
#056320:00230000
#056320:0013
#056350:00000023
#057350:13
#057320:00230000
#058380:0013
#0583b0:00000023
#060380:13
#0603b0:00230000
#0603b0:0013
#060380:00000023
#061380:13
#0613b0:00230000
#064320:14
#064360:00343400
#065320:24
#0653a1:14
#065361:00343400
#0663a1:24
#066320:1434
#066360:00340000
#067360:24
#0673a1:1434
#067361:00340000
#068361:24
#0693a1:00140000
#069381:0026
#069320:00142600
#070320:1434
#070360:00340054
#071320:24
#0713a1:1434
#071361:00340054
#0723a1:24
#084321:1323
#084351:00330000
#087321:0000000000000014
#088341:0054000000000000
#088321:0000002400000000
#0873a0:0000000000000014
#088380:0054000000000000
#0883a0:0000002400000000
#089380:13
#0893b0:00230000
#0893b0:0013
#089380:00000023
#090380:13
#0903b0:00230000
#091350:0013
#091320:00000023
#093350:13
#093320:00230000
#093320:0013
#093350:00000023
#094350:13
#094320:00230000
#097390:14
#097380:00560000000000002600000000000000
#097331:14
#097321:00560000000000002600000000000000
#040920:0014
#040940:00000000000000000024000000000000
#0419a0:0014
#041980:00000000000000000024000000000000
#042920:0014
#042940:00000000000000000024000000000000
