This file was generated by Ched 2.7.0.0.
#TITLE ""
#ARTIST ""
#DESIGNER ""
#DIFFICULTY 0
#PLAYLEVEL
#SONGID ""
#WAVE ""
#WAVEOFFSET 0
#JACKET ""
#REQUEST "ticks_per_beat 480"
#00002: 4
#BPM01: 180
#00008: 01
#TIL00: ""
#VOLUME: ""
#HISPEED 00
#MEASUREHS 00
#06912:00140000
#0691a:14140000
#05612:1414
#0561a:00140000
#07212:14
#07214:0014
#0721a:14
#0721f:11
#08212:0016
#08218:26
#00514:14
#00618:14141414
#00610:41
#00714:14141414
#00818:14141414
#00912:14140000
#0091a:00001414
#01014:14141414
#01118:14141414
#01214:14141414
#0131a:14
#01316:00140000
#01312:0014
#01718:0014
#01714:24000014
#01414:0014
#01418:24000014
#02018:1414
#02014:00140014
#0221a:14
#02212:00140000
#02218:0014
#02214:00000014
#02210:41
#02314:00141400
#02318:0000001400000000
#0231a:14
#0241a:0014
#02412:00000014
#02418:14
#02414:00140000
#0251a:14
#02516:00140000
#02512:0014
#02612:0014
#0261a:00000014
#0271a:0014
#02712:00000014
#02814:0014
#02818:00000014
#02918:0014
#02914:00000014
#03212:00160000
#0321a:00001414
#03214:0000000000140000
#03218:26
#03210:41
#03314:14140000
#0331a:0014000000000000
#03412:1614
#03418:00160000
#03416:00000014
#0351a:14
#03514:00140024
#03518:0000001400000000
#03612:0000160000140000
#03618:26001414
#03712:14140000
#03718:0014000000000000
#03812:14140000
#03818:0014000000000000
#0381a:00002424
#03814:0000000000240000
#0401a:0014
#04112:0014
#0421a:0014
#04414:0000001400000000
#0441a:00141400
#04418:0000000000000014
#04412:26000014
#04410:41
#04512:14
#04514:0000001400000000
#04518:00142400
#04612:14
#04616:00140014
#0461a:0014
#04712:1414
#0471a:00140000
#04812:14
#0481a:14
#04819:0014
#04813:0014
#04912:14
#0491a:14
#04918:00140014
#04914:0014
#05014:0000000000002414
#05012:24
#05016:00240000
#0501a:0024
#05212:14
#0521a:00140000
#05214:0014
#05218:00000014
#05312:14
#0531a:00140000
#05314:0014
#05318:00000014
#05412:14
#05416:00140000
#0541a:0000000000000014
#0731a:14
#07318:0014
#07312:14
#07314:00000014
#0741a:14
#07418:0014
#07412:14
#07512:14
#07514:0014
#0751a:14
#07518:00000014
#07612:14
#07614:0014
#0761a:14
#0771a:14
#07718:0014
#07712:14
#07714:00000014
#0781a:14
#07818:0014
#07812:14
#07912:14
#07914:0014
#0791a:14
#07918:00000014
#0831a:14
#08316:00140014
#08312:0014
#0831f:21
#0841a:1414
#08412:00140000
#08410:41
#0851a:14
#08512:14
#08513:0014
#08519:0014
#0861a:14
#08612:14
#08614:00140014
#08618:0014
#08718:0000000000002414
#0871a:24
#08716:00240000
#08712:0024
#0571a:14
#05714:0014
#05718:00000014
#05814:14000014
#05818:0014
#05912:00140000
#0591a:14
#05918:0014
#05914:00000014
#0601a:1414
#06012:00140000
#06112:14
#06118:0014
#06114:00000014
#06218:14
#06212:00140000
#0621a:0014
#0681a:14
#06812:0014
#06816:00140014
#0641a:14
#06418:00340000
#06410:41
#06512:14
#06514:00340000
#06618:14
#0661a:00340000
#06714:14
#06712:00340000
#0701a:14
#07018:00140000
#07112:14
#07114:00140000
#0891a:1414
#08912:00140000
#09012:14
#09018:0014
#09014:00000014
#09118:14000014
#09114:0014
#0921a:00140000
#09212:14
#09214:0014
#09218:00000014
#09312:1414
#0931a:00140000
#0941a:14
#09414:0014
#09418:00000014
#09514:14
#0951a:00140000
#09512:0014
#0211a:2424
#02112:00240024
#0511a:0000000000240000
#06312:0000002400000000
#08118:26
#08112:0026
#01512:24
#0151a:0024
#01614:24
#01618:0024
#0181a:24
#01812:0024
#0191a:24
#01912:0024
#03918:0026002600000000
#03912:26262600
#08812:0000000000240000
#09712:24
#0971a:24
#0961a:0000002400000000
#05516:3434340000000000
#06958:0016
#06952:00541600
#0695a:00640000
#0335a:00000014
#03554:00000014
#0515a:0000000000140000
#05152:0000001400000000
#04558:0014
#05652:0054
#08158:16
#08152:0016
#08252:0016
#08258:16
#09752:5416
#0975a:64
#09758:0016
#00554:64
#00552:00000014
#03758:00000014
#04055:16
#03952:0056
#04358:14
#0425a:0064
#04452:16
#04752:0014
#05054:0000000000000064
#0545a:0000000000000064
#05556:0000001400000000
#0845a:0014
#08758:0000000000000054
#08852:0000000000140000
#0885a:0000001400000000
#0575a:64
#05854:64
#0605a:0064
#06152:54
#0645a:64
#06458:0014
#06552:54
#06554:0014
#06658:54
#0665a:0014
#06754:64
#06752:0014
#0705a:6414
#07058:00240000
#07152:5414
#07154:00240000
#0895a:0064
#09052:54
#09158:54
#09352:0054
#0945a:64
#00358:0014
#06352:0000001400000000
#0965a:0000001400000000
#0023a0:14340000
#002380:00003434
#0033a0:34340000
#003380:0024
#004340:14
#004320:0034
#005340:34
#005320:00005424
#014380:14240000
#015320:14240000
#0153a0:00001424
#016340:14240000
#016380:00001424
#017340:14240000
#0183a0:14240000
#018320:00001424
#0193a0:14240000
#019320:00001424
#0263a0:14
#026380:00240000
#027320:14
#027340:00240000
#028380:14
#0283a0:00240000
#029340:14
#029320:00240000
#0303a0:1424
#031320:1424
#0333a0:00001424
#035340:00001424
#037380:00001424
#039320:0016
#040350:26
#0423a0:0014
#043380:24
#050340:0000000000001434
#051320:0000002400000000
#0543a0:0000000014000034
#055360:3434342400000000
#056320:0014
#056340:00000024
#0573a0:14
#057380:00240000
#058340:14
#058320:00240000
#0603a0:0014
#060380:00000024
#061320:14
#061340:00240000
#062340:0000000000001434
#063330:0034000000000000
#063320:0000002400000000
#0643a0:14
#064380:00342400
#065320:14
#065340:00342400
#066380:14
#0663a0:00342400
#067340:14
#067320:00342400
#0693a0:00140000
#069380:0026
#069321:00142600
#0703a1:1424
#070381:00340000
#071321:1424
#071341:00340000
#087381:0000000000001434
#0883a1:0000002400000000
#0893a1:0014
#089381:00000024
#090321:14
#090341:00240000
#091381:14
#0913a1:00240000
#093321:0014
#093341:00000024
#0943a1:14
#094381:00240000
#095381:0000000000001434
#096391:0034000000000000
#0963a1:0000002400000000
#097321:1426
#0973a0:14
#097380:0026
