This file was generated by Ched 2.7.0.0.
#TITLE ""
#ARTIST ""
#DESIGNER ""
#DIFFICULTY 0
#PLAYLEVEL
#SONGID ""
#WAVE ""
#WAVEOFFSET 0
#JACKET ""
#REQUEST "ticks_per_beat 480"
#00002: 4
#BPM01: 156
#00008: 01
#TIL00: ""
#VOLUME: ""
#HISPEED 00
#MEASUREHS 00
#00512:13000013
#00518:001300001300
#00515:00131300
#0051b:000000000013000000000000
#00712:000013000000000000130000
#00715:000000000013000000000000
#0071b:2323
#00719:000053
#00718:00000053
#0121a:1414
#01215:00130000
#01212:13
#02012:650000131300
#02018:000000000000000000130013
#0201a:143434003400340000000000000000000000000000000000
#02016:000000003434000000000000
#02010:0041
#02115:231300130000
#0211b:000000000000130000001300000000000000000000130000
#02118:00000013
#02112:0000000000130000
#02113:000033
#0211a:000000000000000000000033
#02218:00130000
#02215:130000000000000000130013
#02212:0013000000000000
#0221b:000000131300
#02216:0014
#02213:003300000000
#02412:0013
#0241b:1313
#02415:000000130000000013000000
#02418:000000130000000000000000000000000000130000001300
#02419:003300000000
#02518:000013000000000000130000
#02515:000000130013000000000000
#02512:23000013
#0251b:0013
#0251a:000000000000000000000033
#02519:000033
#0261b:1313
#02612:0013
#02618:000013
#02615:000000000000000000130013
#02616:13
#02619:003300000000
#0331b:000000000000000000000013
#0331a:14
#03316:24242414
#03618:130000000013000000000000
#03612:1313
#03615:000000130000000000000013
#0361b:000013000000000000130000
#03812:1414
#03818:00140000
#0381a:2424
#03814:00240000
#03810:0041
#03912:130000001300000000000000000000130000000000000000
#03915:000000160000130000000013
#0391b:0000000000130000
#03918:0023
#04115:00160000
#04112:130013000000000000000013
#04113:000000000000000000000000151614161416000000000000
#04119:000000000000000000000000001400140014000000000000
#04117:000000000000001616000000
#04118:0025
#0401b:131300130000
#04015:0000160000130000
#04018:000000000000000000000000000000130000000000001300
#04012:0023
#04812:0017
#0481a:0014
#0481f:0011
#0511a:000000140000000000000014
#05114:000014000014
#05118:000000000014000000140000
#05112:000000141400
#05116:000000000000001400000000
#05212:000000000000001400140000
#05216:14
#05218:000014
#0521a:000000140014
#05215:000000000000000000000014
#05516:000000000014000014000000
#0551a:000000000000140000140014
#05515:0016000000000000
#06415:000013000013000000000000
#06418:00130000
#0641a:14000014
#06412:13
#00218:145454540000145454540000
#00214:000000145454540000145454
#00417:1314
#00416:00000013
#00415:00140000
#00412:14
#0041a:00000014
#0041b:00130000
#03015:00000013
#0301b:0013
#03018:00000013
#03012:0023
#03010:0041
#0311b:1313
#03112:2323
#03412:1313
#03417:0013
#0341b:0000130000000013
#03416:0000000000000013
#03715:00130023
#03718:13000013
#0371b:0013
#03517:00000000001300000000000000000000
#03512:00000000001300000000000000000000
#0501a:001400000000000000000000
#05317:000000000000000000000000145454545454540000000000
#0531a:140000000014
#05312:000014000000145454545454540000000000140000000000
#05316:001400000000
#05315:000000000000000000000014
#05616:14141400
#05612:00000013
#0561a:000000000034240000000000
#0561f:0021
#05615:00340000000000000000000000000000
#05614:0034000000000000
#05613:00000034000000000000000000000000
#05718:131300130000
#05712:00130000
#0571a:00000014
#05710:0041
#06112:00000000001300000000000000000000
#0611b:00000000001300000000000000000000
#06212:14
#06218:00131300
#06215:000000000013000000130000
#0621a:14
#06316:00001414
#06312:00001313
#06512:00000014
#06516:14
#06513:22
#06616:14
#06612:00002413
#0661a:0014
#0661b:22
#07412:13131616
#07418:000000000000000000000016
#07518:00161300
#07515:000013
#0751b:000000000000000000130013
#07512:1613
#07612:000000130000260000000016
#07615:13
#07618:000013000000160000160000
#07116:00001414
#0711a:14
#07115:00130000
#07118:001300000000
#07112:14
#0711b:0013
#07016:00001414
#0701b:13
#07015:001300000000
#07018:00130000
#07012:0023
#06712:13131313
#06018:0000160026000016
#06012:160000001600000000000000160000000000000000260000
#06016:0000000000160000
#00615:140000000000000000000013
#00617:00130000
#00612:000000140000000013000000
#0061b:1323
#00610:41
#0091b:13000013
#00915:001300001300
#00918:00131300
#00912:000000000013000000000000
#0111b:001300000000
#01118:000000000013000000130000
#01112:2323
#01114:000053
#01115:00000053
#00816:13
#00817:00140013
#0081a:14
#00812:00130014
#00815:0014
#01018:000000000000000000000013
#01016:00130000
#0101a:00140000
#01017:14
#0101b:000013
#01012:1323
#01312:1414
#01318:00130000
#0131b:13
#0141a:14141400
#01412:13
#01415:00130000
#01512:14141400
#0151b:13
#01518:00130000
#0161a:14141400
#01615:00130000
#01612:1313
#01712:14141400
#01718:00130000
#0171b:1313
#02318:230000001300000000000000000000130000000000000000
#02312:000000130013000000130000
#0231b:0013
#02315:0000000000000013
#02314:000000000000000000000033
#02319:000033
#02718:000000130013000000000000
#02715:000013000000000000130000
#0271b:23000013
#02712:0013
#02713:000000000000000000000033
#02714:000033
#02812:1313
#02815:00130000
#02817:13
#0281b:00130000
#0281a:00002424
#02814:003300000000
#02813:000000000033000000000000
#04415:130000000013000000000000
#0441b:1313
#04418:000000130000000000000013
#04412:000013000000000000130000
#04518:00130023
#04515:13000013
#04512:0023
#0461a:1414
#04614:00140000
#04612:2424
#04618:000000240000003400000000
#04616:000000000000000034000064
#04610:00000041
#04916:180000140000000014000014
#0491a:001400
#04914:000000000014000000140000
#04918:000000140014
#04912:000000000000001400000000
#05417:141400
#05412:001400000014000013000000
#0541a:001400000000
#05415:000000140000001300000000
#05418:0013
#05814:141400140000
#0581a:00140000
#05812:00000015
#05918:150015000000150000160000
#05912:00150000
#06812:1324
#06818:001300000000
#06815:00130000
#0681b:13001313
#0691b:13131313
#06916:00140000
#07212:14002613
#07215:001300000000
#07218:00130000
#0721a:1424
#07312:13131313
#07718:160016000000000013000026
#07712:00160000
#0771b:000000000013000000000000
#07715:0013
#0421b:1313
#04216:0013
#04212:0000130000000013
#04217:0000000000000013
#04315:00000000001400000000000000000000
#0431a:00000000001400000000000000000000
#04716:000064000000640000006414000000000000000000000000
#04714:0028
#01819:25
#01812:25
#0291a:24242400
#02912:0024
#02916:000000000024000000000000
#07818:00260000
#07812:262600000000
#00318:26
#00314:54
#0321a:24
#03212:0024
#01912:6565
#01919:65
#01914:00650065
#00455:00240000
#00452:54
#0045a:00000024
#00457:0054
#02155:0053
#02152:0000000000230000
#0215b:0000000000000023
#02158:00000053
#02255:53
#02252:0023000000000000
#02258:00130000
#03452:6353
#0345b:0000530000000053
#03457:0053
#03456:0000000000000053
#03758:63
#03755:00630000
#03557:00000000002300000000000000000000
#03552:00000000002300000000000000000000
#03955:0063
#03958:0053
#0395b:0000000000230000
#03952:0000000000230000
#04055:0000000000530000
#04052:0023
#04058:0000000000630000
#0405b:0023
#03652:0053
#0505a:002400000000000000000000
#06052:0000000000000066
#06058:0000160056000066
#06056:0000000000260000
#06152:00000000002300000000000000000000
#0615b:00000000002300000000000000000000
#06552:00000024
#06556:64
#0655a:0014
#06656:64
#06652:0014
#0665a:0064
#0645a:00000024
#05656:64540000
#0565a:0014
#05652:00000013
#05555:0066000000000000
#0125a:0014
#0305b:0063
#03058:00000023
#0315b:6363
#03152:5353
#00358:16
#00652:00240000
#00655:64
#00857:00240000
#0085a:64
#00852:00000024
#00855:0064
#0105a:00240000
#01057:54
#01352:0014
#0145a:0014
#01552:0014
#0165a:0014
#01752:0014
#01952:5555
#01954:00550055
#02056:0014
#0205a:54
#02352:00000063
#0235b:0063
#02355:0000000000000023
#02358:0000000000230000
#0245b:53
#02458:0023000000000000
#02455:00130000
#0265b:53
#02656:53
#02652:00130000
#02657:00130000
#0255b:0053
#02558:00000053
#02752:0063
#02755:00000063
#02852:6363
#02855:00630000
#03855:00000016
#0385a:0054
#04158:0055
#04157:000000000000005656000000
#04153:000000000000000000000000552654265426000000000000
#04159:000000000000000000000000002400240024000000000000
#04558:00530000
#04555:53
#0445b:0063
#04754:0018
#04756:000000000000000000000024000000000000000000000000
#0465a:0064
#04852:0017
#0485a:0024
#04956:58
#05256:54
#05752:00130000
#0575a:00000014
#0585a:00140000
#05852:00000015
#06258:0053
#06255:00000053
#0635b:13
#06352:13
#06956:00240000
#07458:0016
#07858:00460000
#07852:36
#07758:46
#07752:00360000
#03356:64546400
#05952:00150000
#05958:00000016
#0425b:5363
#04256:0063
#04252:0000630000000063
#04257:0000000000000063
#04355:00000000002400000000000000000000
#0435a:00000000002400000000000000000000
#07252:0016
#07652:0016
#07552:36
#07558:00460000
#06852:0054
#07052:0013
#004320:1424
#004350:00540000
#004371:0014
#0043a1:00000054
#005371:24
#006351:1424
#006321:00540000
#006381:000000000000000000130023
#007381:000000130023000000000000
#0083a1:1424
#008371:00540000
#008350:0014
#008320:00000054
#009350:24
#010370:1424
#0103a0:00540000
#010350:000000000000000000130023
#011350:000000130023000000000000
#0203a0:143434003400340000000000000000000000000000000000
#020360:000000003434240000000000
#021350:00001323
#021320:0000000000530000
#021330:000033
#021381:00000013
#0213b1:0000000000000053
#0213a1:000000000000000000000033
#022381:23
#022350:13230000
#022320:0053000000000000
#022330:003300000000
#0233b0:00001323
#023380:0000000000530000
#023390:000033
#023321:00000013
#023351:0000000000000053
#023341:000000000000000000000033
#024321:23
#0243b0:13230000
#024380:0053000000000000
#024390:003300000000
#0253b0:0013
#025390:000033
#025380:00000033
#0253a0:000000000000000000000033
#0263b0:33
#026390:003300000000
#026370:00230000
#026361:13
#026321:00230000
#027321:0013
#027341:000033
#027351:00000033
#027331:000000000000000000000033
#028321:3333
#028341:003300000000
#028351:00330000
#028331:000000000033000000000000
#029361:00240000
#0303b1:0013
#030381:00000053
#0313b1:33
#031381:00230000
#031320:13
#031350:00230000
#0313b0:0013
#031380:000000000000005300230000
#031321:0013
#031351:000000000000005300230000
#0323a1:145454240000000000000000
#032391:000000000000000000000000000000000000000000000000000000000000000000000000000000000000000000000000000000000000000000000000000000000000000000000000000000000000000000000000000000000000000000000000000000000000000000000000000000000000000000000000000000000000000000000000000000000000000000000000000000000000000000000000000000000055000000000000000000000000000000000000000000000000000000000000000000000000000000000000000000000000000000000000000000000000000000000000000000000000000000000000000000000000000000000000000000000000000000000000000000000000000000000000000000000000000000000000000000000000000000000000000000000000000000000000000000000000005500000000000000000000000000000000000000000000000000000000000000000000000000000000000000000000000000000000000000000000000000000000000000000000000000000000000000000000000000000000000000000000000000000000000000000000000000000000000000000000000000000000000000000000000000000000000000000000000000000000000000000000000000000000000000000000000000000000000000000000000000000000000000000000000000000000000000000000000000000000000000000000000000000000000000000000000000000000000000000000000000000000000000000000000000000000000000000000000000000000000000000000000000000000000000000000000000000000000000000000000000000000000000000000000000000000000000000000000000000000000000000000000000000000000000000000000000000000000000000000000000000000000000000000000000000000000000000000000000000000000000000000000000000000000000000000000000000000000000000000000000000000000000000000000000000000000000000000000000000000000000000000000000000000000000000000000000000000000000000000000000000000000000000000000000000000000000000000000000000000000000000000000000000000000000000000000000000000000000000000000000000000000000000000000000000000000000000000000000000000000000000000000000000000000000000000000000000000000000000000000000000000000000000000000000000000000000000000000000000000000000000000000000000000000000000000000000000000000000000000000000000000000000000000000000000000000000000000000000000000000000000000000000000000000000000000000000000000000000000000000000000000000000000000000000000000000000000000000000000000000000000000000000000000000000000000000000000000000000000000000000000000000000000000000000000000000000000000000000000000000000000000000000000000000000000000000000000000000000000000000000000000000000000000000000000000000000000000000000000000000000000000000000000000000000000000000000000000000000000000000000000000000000000000000000000000000000000000000000000000000000000000000000000000000000000000000000000000000000000000000000000000000000000000000000000000000000000000000000000000000000000000000000000000000000000000000000000000000000000000000000000000000000000000000000000000000000000000000000000000000000000000000000000000000000000000000000000000000000000000000000000000000000000000000000000000000000000000000000000000000000000000000000000000000000000000000000000000000000000000000000000000000000000000000000000000000000000000000000000000000000000000000000000000000000000000000000000000000000000000000000000000000000000000000000000000000000000000000000000000000000000000000000000000000000000000000000000000000000000000000000000000000000000000000000000000000000000000000000000000000000000000000000000000000000000000000000000000000000000000000000000000000000000000000000000000000000000000000000000000000000000000000000000000000000000000000000000000000000000000000000000000000000000000000000000000000000000000000000000000000000000000000000000000000000000000000000000000000000000000000000000000000000000000000000000000000000000000000000000000000000000000000000000000000000000000000000000000000000000000000000000000000000000000000000000000000000000000000000000000000000000000000000000000000000000000000000000000000000000000000000000000000000000000000000000000000000000000000000000000000000000000000000000000
#032360:140000000000000000000000000000000000000000000000000000000000000000000000000000000000000000000000000000000000000000000000000000000000000000000000000000000000000000000000000000000000000000000000000000000000000000000000000000000000000000000000000000000000000000000000000000000000000000000000000000000000000000000000000000005453000000000000000000000000000000000000000000000000000000000000000000000000000000000000000000000000000000000000000000000000000000000000000000000000000000000000000000000000000000000000000000000000000000000000000000000000000000000000000000000000000000000000000000000000000000000000000000000000000000000000000000000000005354000000000000000000000000000000000000000000000000000000000000000000000000000000000000000000000000000000000000000000000000000000000000000000000000000000000000000000000000000000000000000000000000000000000000000000000000000000000000000000000000000000000000000000000000000000000000000000000000000000000000000000000000000000240000000000000000000000000000000000000000000000000000000000000000000000000000000000000000000000000000000000000000000000000000000000000000000000000000000000000000000000000000000000000000000000000000000000000000000000000000000000000000000000000000000000000000000000000000000000000000000000000000000000000000000000000000000000000000000000000000000000000000000000000000000000000000000000000000000000000000000000000000000000000000000000000000000000000000000000000000000000000000000000000000000000000000000000000000000000000000000000000000000000000000000000000000000000000000000000000000000000000000000000000000000000000000000000000000000000000000000000000000000000000000000000000000000000000000000000000000000000000000000000000000000000000000000000000000000000000000000000000000000000000000000000000000000000000000000000000000000000000000000000000000000000000000000000000000000000000000000000000000000000000000000000000000000000000000000000000000000000000000000000000000000000000000000000000000000000000000000000000000000000000000000000000000000000000000000000000000000000000000000000000000000000000000000000000000000000000000000000000000000000000000000000000000000000000000000000000000000000000000000000000000000000000000000000000000000000000000000000000000000000000000000000000000000000000000000000000000000000000000000000000000000000000000000000000000000000000000000000000000000000000000000000000000000000000000000000000000000000000000000000000000000000000000000000000000000000000000000000000000000000000000000000000000000000000000000000000000000000000000000000000000000000000000000000000000000000000000000000000000000000000000000000000000000000000000000000000000000000000000000000000000000000000000000000000000000000000000000000000000000000000000000000000000000000000000000000000000000000000000000000000000000000000000000000000000000000000000000000000000000000000000000000000000000000000000000000000000000000000000000000000000000000000000000000000000000000000000000000000000000000000000000000000000000000000000000000000000000000000000000000000000000000000000000000000000000000000000000000000000000000000000000000000000000000000000000000000000000000000000000000000000000000000000000000000000000000000000000000000000000000000000000000000000000000000000000000000000000000000000000000000000000000000000000000000000000000000000000000000000000000000000000000000000000000000000000000000000000000000000000000000000000000000000000000000000000000000000000000000000000000000000000000000000000000000000000000000000000000000000000000000000000000000000000000000000000000000000000000000000000000000000000000000000000000000000000000000000000000000000000000000000000000000000000000000000000000000000000000000000000000000000000000000000000000000000000000000000000000000000000000000000000000000000000000000000000000000000000000000000000000000000000000000000000000000000000000000000000000000000000000
#032320:000000000000000000000000000000000000000000000000000000000000000000000000000000000000000000000000000000000000000000000000000000000000000000000000000000000000000000000000000000000000000000000000000000000000000000000000000000000000000000000000000000000000000000000000000000000000000000000000000000000000000000000000000000000000000000000000000000000000000000000000000000000000000000000000000000000000000000000000000000000000000000000000000000000000000000000000000000000000000000000000000000000000000000000000000000000000000000000000000000000000000000000000000000000000000000000000000000000000000000000000000000000000000000000000000000000000000000000000000000000000000000000000000000000000000000000000000000000000000000000000000000000000000000000000000000000000000000000000000000000000000000000000000000000000000000000000000000000000000000000000000000000000000000000000000000000000000000000000000000000000000000000000000000000000000000000000000000000000000000000000000000000000000000000000000000000000000000000000000000000000000000000000000000000000000000000000000000000000000000000000000000000000000000000000000000000000000000000000000000000000000000000000000000000000000000000000000000000000000000000000000000000000000000000000000000000000000000000000000000000000000000000000000000000000000000000000000000000000000000000000000000000000000000000000000000000000000000000000000000000000000000000000000000000000000000000000000000000000000000000000000000000000000000000000000000000000000000000000000000000000000000000000000000000000000000000000000000000000000000000000000000000000000000000000000000000000000000000000000000000000000000000000000000000000000000000000000000000000000000000000000000000000000000000000000000000000000000000000000000000000000000000000000000000000000000000000000000000000000000000000000000000000000000000000000000000000000000000000000000000000000000000000000000000000000000000000000000000000000000000000140000000000000000000000000000000000000000000000000000000000000000000000000000000000000000000000000000000000000000000000000000000000000000000000000000000000000000000000000000000000000000000000000000000000000000000000000000000000000000000000000000000000000000000000000000000000000000000000000000000000000000000000000000005455000000000000000000000000000000000000000000000000000000000000000000000000000000000000000000000000000000000000000000000000000000000000000000000000000000000000000000000000000000000000000000000000000000000000000000000000000000000000000000000000000000000000000000000000000000000000000000000000000000000000000000000000005554000000000000000000000000000000000000000000000000000000000000000000000000000000000000000000000000000000000000000000000000000000000000000000000000000000000000000000000000000000000000000000000000000000000000000000000000000000000000000000000000000000000000000000000000000000000000000000000000000000000000000000000000000000240000000000000000000000000000000000000000000000000000000000000000000000000000000000000000000000000000000000000000000000000000000000000000000000000000000000000000000000000000000000000000000000000000000000000000000000000000000000000000000000000000000000000000000000000000000000000000000000000000000000000000000000000000000000000000000000000000000000000000000000000000000000000000000000000000000000000000000000000000000000000000000000000000000000000000000000000000000000000000000000000000000000000000000000000000000000000000000000000000000000000000000000000000000000000000000000000000000000000000000000000000000000000000000000000000000000000000000000000000000000000000000000000000000000000000000000000000000000000000000000000000000000000000000000000000000000000000000000000000000000000000000000000000000000000000000000000000000000000000000000000000000000000000000000000000000000000000000000000000000000000000000000000000000000000000000000000000000000000000000000
#032361:000000000000145454240000
#032371:000000000000000000000000000000000000000000000000000000000000000000000000000000000000000000000000000000000000000000000000000000000000000000000000000000000000000000000000000000000000000000000000000000000000000000000000000000000000000000000000000000000000000000000000000000000000000000000000000000000000000000000000000000000000000000000000000000000000000000000000000000000000000000000000000000000000000000000000000000000000000000000000000000000000000000000000000000000000000000000000000000000000000000000000000000000000000000000000000000000000000000000000000000000000000000000000000000000000000000000000000000000000000000000000000000000000000000000000000000000000000000000000000000000000000000000000000000000000000000000000000000000000000000000000000000000000000000000000000000000000000000000000000000000000000000000000000000000000000000000000000000000000000000000000000000000000000000000000000000000000000000000000000000000000000000000000000000000000000000000000000000000000000000000000000000000000000000000000000000000000000000000000000000000000000000000000000000000000000000000000000000000000000000000000000000000000000000000000000000000000000000000000000000000000000000000000000000000000000000000000000000000000000000000000000000000000000000000000000000000000000000000000000000000000000000000000000000000000000000000000000000000000000000000000000000000000000000000000000000000000000000000000000000000000000000000000000000000000000000000000000000000000000000000000000000000000000000000000000000000000000000000000000000000000000000000000000000000000000000000000000000000000000000000000000000000000000000000000000000000000000000000000000000000000000000000000000000000000000000000000000000000000000000000000000000000000000000000000000000000000000000000000000000000000000000000000000000000000000000000000000000000000000000000000000000000000000000000000000000000000000000000000000000000000000000000000000000000000000000000000000000000000000000000000000000000000000000000000000000000000000000000000000000000000000000000000000000000000000000000000000000000000000000000000000000000000000000000000000000000000000000000000000000000000000000000000000000000000000000000000000000000000000000000000000000000000000000000000000000000000000000000000000000000053000000000000000000000000000000000000000000000000000000000000000000000000000000000000000000000000000000000000000000000000000000000000000000000000000000000000000000000000000000000000000000000000000000000000000000000000000000000000000000000000000000000000000000000000000000000000000000000000000000000000000000000000005300000000000000000000000000000000000000000000000000000000000000000000000000000000000000000000000000000000000000000000000000000000000000000000000000000000000000000000000000000000000000000000000000000000000000000000000000000000000000000000000000000000000000000000000000000000000000000000000000000000000000000000000000000000000000000000000000000000000000000000000000000000000000000000000000000000000000000000000000000000000000000000000000000000000000000000000000000000000000000000000000000000000000000000000000000000000000000000000000000000000000000000000000000000000000000000000000000000000000000000000000000000000000000000000000000000000000000000000000000000000000000000000000000000000000000000000000000000000000000000000000000000000000000000000000000000000000000000000000000000000000000000000000000000000000000000000000000000000000000000000000000000000000000000000000000000000000000000000000000000000000000000000000000000000000000000000000000000000000000000000000000000000000000000000000000000000000000000000000000000000000000000000000000000000000000000000000000000000000000000000000000000000000000000000000000000000000000000000000000000000000000000000000000000000000000000000000000000000000000000000000000000000000000000000000000000000000000000000000000000000000000000000000000000
#033361:14
#033321:00240000
#033360:00140000
#0333a0:0024
#033361:0014
#033321:00000024
#034321:13
#034361:00230000
#0343b0:0000130000000033
#034370:0033
#035370:00000000005300000000000000000000
#0353b0:00000023
#034321:0013
#034361:0000000000000033
#035321:00000000005300000000000000000000
#035361:00000023
#036321:0013
#036351:00000023
#037381:13
#0373b1:00230000
#037350:00130000
#037320:0023
#0383a0:0014
#038350:00000026
#039380:00001323
#0393b0:0000000000530000
#039351:00001323
#039321:0000000000530000
#040321:00001323
#040351:0000000000530000
#0403b0:00001323
#040380:0000000000530000
#041330:000000000000000000000000155654565456250000000000
#041381:00001525
#041391:000000000000000000000000005400540054000000000000
#041371:000000000000005656000000
#0423b1:13
#042371:00230000
#042320:0000130000000033
#042360:0033
#043350:00000000005400000000000000000000
#043320:00000024
#0423b1:0013
#042371:0000000000000033
#0433a1:00000000005400000000000000000000
#043371:00000024
#0443b1:0013
#044381:00000023
#045351:13
#045321:00230000
#045380:00130000
#0453b0:0023
#0463a0:0014
#046380:000000000000003400000000
#046360:000000000000000034340000
#047360:000000000000000000000054000000000000000000000000
#047340:0028
#0483a0:0014
#048360:0000000000000000000000000000000000000000000000000000000058585858
#048370:00000000000000000000000000000000000000000000000000000000000000000000000000000000000000000000000000000000000000000056005600560056
#049360:58
#0493a0:00240000
#0503a0:143400000000000000000000
#050390:003400000000000000000000000000000000000000000000
#051350:26
#052360:14
#052320:000000000000000000000000005456545654565456545654250000000000000000000000000000000000000000000000
#054350:0000000000001636
#054360:00000000000000000000000000540054
#055350:3636000000000000
#055360:00540000000000000000000000000000
#0553a0:000000000024000000000000
#056360:14
#056350:00340000000000000000000000000000
#056340:0034000000000000
#056330:00000034000000000000000000000000
#056320:00240000
#056361:00140000
#0563a1:000000000034240000000000
#057351:00001323
#058381:00001424
#059331:00001525
#060381:0000000016000036
#060361:0000000000560000
#0613b1:00000000005300000000000000000000
#061381:00000026
#060320:0000000000000016
#061320:00000000005300000000000026000000
#062380:0013
#0633b0:23
#062351:00000013
#063321:23
#0643a1:00001454
#065361:54
#0653a1:00542400
#065320:00001454
#066360:54
#066320:00542400
#0663a1:0014
#067361:0024
#068321:0014
#069361:00540000
#070321:24
#0723a1:000000000000145400000000
#072391:000000000000000000000000005400005400000000000000
#072381:0000000000545400
#072371:000000000000000000000000000000000054000054005400
#072361:000000000000000000000000000000000000005400540054
#073371:545454545454545454545454
#073361:005400540054005400540054005400540054005400540054
#074371:540054005400550056000056000000000000000000000000
#074361:005400540054005500560000000000000000000000000000
#074381:000000000056260000000000
#077321:000000000000000000130023
#002980:14240000
#002941:00142400
#002980:00001424
#002941:00000014
#003941:24
#0079b1:000000000000000000000000000000000000000000000000000000000000000000000000000000000000000000000000000000000000000000000000000000000000000000000000000000000000000000000000000000000000000000000000000000000000000000000000000000000000000000000000000000000000000000000000000000000000000000000000000000000000000000000000000000000000000000000000000000000000000000000000000000000000000000000000000000000000000000000000000000000000000000000000000000000000000000000000000000000000000000000000000000000000000000000000000000000000000000000000000000000000000000000000000000000000000000000000000000000000000000000000000000000000000000000000000000000000000000000000000000000000000000000000000000000000000000000000000000000000000000000000000000000000000000000000000000000000000000000000000000000000000000000000000000000000000000000000000000000000000000000000000000000000000000000000000000000000000000000000000000000000000000000000000000000000000000000000000000000000000000000000000000000000000000000000000000000000000000000000000000000000000000000000000000000000000000000000000000000000000000000000000000000000000000000000000000000000000000000000000000000000000000000000000000000000000000000000000000000000000000000000000000000000000000000000000000000000000000000000000000000000000000000000000000000000000000000000000000000000000000000000000000000000000000000000000000000000000000000000000000000000000000000000000000000000000000000000000000000000000000000000000000000000000000000000000000000000000000000000000000000000000000000000000000000000000000000000000000000000000000000000000000000000000000000000000000000000000000000000000000000000000000000000000000000000000000000000000000000000000000000000000000000000000000000000000000000000000000000000000000000000000000000000000000000000000000000000000000000000000000000000000000000000000000000000000000000000000000000000000000000000000000000000000000000000000000000000000000000000000000000000001300000000000000000000000000000000000000000000000000000000000000000000000000000000000000000000000000000000000000000000000000000000000000000000000000000000000000000000000000000000000000000000000000000000000000000000000000000000000000000000000000000000000000000000000000000000000000000000000000000000000000000000000000000000000000000000000000000000000000000000000000000000000000000000000000000000000000000000000000000000000000000000000000000000000000000000000000000000000000000000000000000000000000000000000000000000000000000000000000000000000000000000000000000000000000000000000000000000000000000000000000000000000000000000000000000000000000000000000000000000000000000000000000000000000000000000000000000000000000000000000000000000000000000000000000000000000000000000000000000000000000000000000000000000000000000000000000000000000000000000000000000000000000000000000000000000000000000000000000000000000000000000000000000000000000000000000000000000000000000000000000000000000000000000000000000000000000000000000000000000000000000000000000000000000000000000000000000000000000000000000000000000000000000000000000000000000000000000000000000000000000000000000000000000000000000000000000000000000000000000000000000000000000000000000000000000000000000000000000000000000000000000000000000000000000000000000000000000000000000000000000000000000000000000000000000000000000000000000000000000000000000000000000000000000000000000000000000000000000000000000000000000000000000000000000000000000000000000000000000000000000000000000000000000000000000000000000000000000000000000000000000000000000000000000000000000000000000000000000000000000000000000000000000000000000000000000000000000000000000000000000000000000000000000000000000000000000000000000000000000000000000000000000000000000000000000000000000000000000000000000000000000000000000000000000000000000000000000000000000000000000000000000000000000000000000000000000000000000000000000
#007981:000000000000000000000000000000000000000000000000000000000000000000000000000000000000000000000000000000000000000000000000000000000000000000000000000000000000000000000000000000000000000000000000000000000000000000000000000000000000000000000000000000000000000000000000000000000000000000000000000000000000000000000000000000000000000000000000000000000000000000000000000000000000000000000000000000000000000000000000000000000000000000000000000000000000000000000000000000000000000000000000000000000000000000000000000000000000000000000000000000000000000000000000000000000000000000000000000000000000000000000000000000000000000000000000000000000000000000000000000000000000000000000000000000000000000000000000000000000000000000000000000000000000000000000000000000000000000000000000000000000000000000000000000000000000000000000000000000000000000000000000000000000000000000000000000000000000000000000000000000000000000000000000000000000000000000000000000000000000000000000000000000000000000000000000000000000000000000000000000000000000000000000000000000000000000000000000000000000000000000000000000000000000000000000000000000000000000000000000000000000000000000000000000000000000000000000000000000000000000000000000000000000000000000000000000000000000000000000000000000000000000000000000000000000000000000000000000000000000000000000000000000000000000000000000000000000000000000000000000000000000000000000000000000000000000000000000000000000000000000000000000000000000000000000000000000000000000000000000000000000000000000000000000000000000000000000000000000000000000000000000000000000000000000000000000000000000000000000000000000000000000000000000000000000000000000000000000000000000000000000000000000000000000000000000000000000000000000000000000000000000000000000000000000000000000000000000000000000000000000000000000000000000000000000000000000000000000000000000000000000000000000000000000000000000000000000000000000000000000000000000000000000000000000000000000000000000000000000000000000000000000000000000000000000000000000000000000000000000000000000000000000000000000000000000000000000000000000000000000000000000000000000000000000000000000000000000000000000000000000000000000000000000000000000000000000000000000000000000000000000000000000000000000000000000000000000000000000000000000000000000000000000000000000000000000000000000000000000000000000000000000000000000000000000000000000000000000000000000000000000000000000000000000000000000000000000000000000000000000000000000000000000000000000000000000000000000000000000000000000000000000000000000000000000000000000000000000000000000000000000000000000000000000000000000000000000000000000000000000000000000000000000000000000000000000000000000000000000000000000000000000000000000000000000000000000000000000000000000000000000000000000000000000000000000000000000000000000000000000000000000000000000000005300000000000000530000000000000053000000000000230000000000000000000000000000000000000000000000000000000000000000000000000000000000000000000000000000000000000000000000000000000000000000000000000000000000000000000000000000000000000000000000000000000000000000000000000000000000000000000000000000000000000000000000000000000000000000000000000000000000000000000000000000000000000000000000000000000000000000000000000000000000000000000000000000000000000000000000000000000000000000000000000000000000000000000000000000000000000000000000000000000000000000000000000000000000000000000000000000000000000000000000000000000000000000000000000000000000000000000000000000000000000000000000000000000000000000000000000000000000000000000000000000000000000000000000000000000000000000000000000000000000000000000000000000000000000000000000000000000000000000000000000000000000000000000000000000000000000000000000000000000000000000000000000000000000000000000000000000000000000000000000000000000000000000000000000000000000000000000000
#011921:000000000000000000000000000000000000000000000000000000000000000000000000000000000000000000000000000000000000000000000000000000000000000000000000000000000000000000000000000000000000000000000000000000000000000000000000000000000000000000000000000000000000000000000000000000000000000000000000000000000000000000000000000000000000000000000000000000000000000000000000000000000000000000000000000000000000000000000000000000000000000000000000000000000000000000000000000000000000000000000000000000000000000000000000000000000000000000000000000000000000000000000000000000000000000000000000000000000000000000000000000000000000000000000000000000000000000000000000000000000000000000000000000000000000000000000000000000000000000000000000000000000000000000000000000000000000000000000000000000000000000000000000000000000000000000000000000000000000000000000000000000000000000000000000000000000000000000000000000000000000000000000000000000000000000000000000000000000000000000000000000000000000000000000000000000000000000000000000000000000000000000000000000000000000000000000000000000000000000000000000000000000000000000000000000000000000000000000000000000000000000000000000000000000000000000000000000000000000000000000000000000000000000000000000000000000000000000000000000000000000000000000000000000000000000000000000000000000000000000000000000000000000000000000000000000000000000000000000000000000000000000000000000000000000000000000000000000000000000000000000000000000000000000000000000000000000000000000000000000000000000000000000000000000000000000000000000000000000000000000000000000000000000000000000000000000000000000000000000000000000000000000000000000000000000000000000000000000000000000000000000000000000000000000000000000000000000000000000000000000000000000000000000000000000000000000000000000000000000000000000000000000000000000000000000000000000000000000000000000000000000000000000000000000000000000000000000000000000000000000000001300000000000000000000000000000000000000000000000000000000000000000000000000000000000000000000000000000000000000000000000000000000000000000000000000000000000000000000000000000000000000000000000000000000000000000000000000000000000000000000000000000000000000000000000000000000000000000000000000000000000000000000000000000000000000000000000000000000000000000000000000000000000000000000000000000000000000000000000000000000000000000000000000000000000000000000000000000000000000000000000000000000000000000000000000000000000000000000000000000000000000000000000000000000000000000000000000000000000000000000000000000000000000000000000000000000000000000000000000000000000000000000000000000000000000000000000000000000000000000000000000000000000000000000000000000000000000000000000000000000000000000000000000000000000000000000000000000000000000000000000000000000000000000000000000000000000000000000000000000000000000000000000000000000000000000000000000000000000000000000000000000000000000000000000000000000000000000000000000000000000000000000000000000000000000000000000000000000000000000000000000000000000000000000000000000000000000000000000000000000000000000000000000000000000000000000000000000000000000000000000000000000000000000000000000000000000000000000000000000000000000000000000000000000000000000000000000000000000000000000000000000000000000000000000000000000000000000000000000000000000000000000000000000000000000000000000000000000000000000000000000000000000000000000000000000000000000000000000000000000000000000000000000000000000000000000000000000000000000000000000000000000000000000000000000000000000000000000000000000000000000000000000000000000000000000000000000000000000000000000000000000000000000000000000000000000000000000000000000000000000000000000000000000000000000000000000000000000000000000000000000000000000000000000000000000000000000000000000000000000000000000000000000000000000000000000000000000000000000000000
#011951:000000000000000000000000000000000000000000000000000000000000000000000000000000000000000000000000000000000000000000000000000000000000000000000000000000000000000000000000000000000000000000000000000000000000000000000000000000000000000000000000000000000000000000000000000000000000000000000000000000000000000000000000000000000000000000000000000000000000000000000000000000000000000000000000000000000000000000000000000000000000000000000000000000000000000000000000000000000000000000000000000000000000000000000000000000000000000000000000000000000000000000000000000000000000000000000000000000000000000000000000000000000000000000000000000000000000000000000000000000000000000000000000000000000000000000000000000000000000000000000000000000000000000000000000000000000000000000000000000000000000000000000000000000000000000000000000000000000000000000000000000000000000000000000000000000000000000000000000000000000000000000000000000000000000000000000000000000000000000000000000000000000000000000000000000000000000000000000000000000000000000000000000000000000000000000000000000000000000000000000000000000000000000000000000000000000000000000000000000000000000000000000000000000000000000000000000000000000000000000000000000000000000000000000000000000000000000000000000000000000000000000000000000000000000000000000000000000000000000000000000000000000000000000000000000000000000000000000000000000000000000000000000000000000000000000000000000000000000000000000000000000000000000000000000000000000000000000000000000000000000000000000000000000000000000000000000000000000000000000000000000000000000000000000000000000000000000000000000000000000000000000000000000000000000000000000000000000000000000000000000000000000000000000000000000000000000000000000000000000000000000000000000000000000000000000000000000000000000000000000000000000000000000000000000000000000000000000000000000000000000000000000000000000000000000000000000000000000000000000000000000000000000000000000000000000000000000000000000000000000000000000000000000000000000000000000000000000000000000000000000000000000000000000000000000000000000000000000000000000000000000000000000000000000000000000000000000000000000000000000000000000000000000000000000000000000000000000000000000000000000000000000000000000000000000000000000000000000000000000000000000000000000000000000000000000000000000000000000000000000000000000000000000000000000000000000000000000000000000000000000000000000000000000000000000000000000000000000000000000000000000000000000000000000000000000000000000000000000000000000000000000000000000000000000000000000000000000000000000000000000000000000000000000000000000000000000000000000000000000000000000000000000000000000000000000000000000000000000000000000000000000000000000000000000000000000000000000000000000000000000000000000000000000000000000000000000000000000000000000000000000000000000005300000000000000530000000000000053000000000000230000000000000000000000000000000000000000000000000000000000000000000000000000000000000000000000000000000000000000000000000000000000000000000000000000000000000000000000000000000000000000000000000000000000000000000000000000000000000000000000000000000000000000000000000000000000000000000000000000000000000000000000000000000000000000000000000000000000000000000000000000000000000000000000000000000000000000000000000000000000000000000000000000000000000000000000000000000000000000000000000000000000000000000000000000000000000000000000000000000000000000000000000000000000000000000000000000000000000000000000000000000000000000000000000000000000000000000000000000000000000000000000000000000000000000000000000000000000000000000000000000000000000000000000000000000000000000000000000000000000000000000000000000000000000000000000000000000000000000000000000000000000000000000000000000000000000000000000000000000000000000000000000000000000000000000000000000000000000000000000
#018921:15
#019921:5555
#019941:00550055
#020921:25
#018990:150000000000000000000000000000000000000000000000000000000000000000000000000000000000000000000000000000000000000000000000000000000000000000000000000000000000000000000000000000000000000000000000000000000000000000000000000000000000000000000000000000000000000000000000000000000000000000000000000000000000000000000000000000000000000000000000000000000000000000000000000000000000000000000000000000000000000000000000000000000000000000000000000000000000000000000000000000000000000055555555
#019990:25
#053921:000000000000000000000000000000000000000000000000000000000000000000000000000000000000000000000000000000000000000000000000000000000000000000000000000000000000000000000000000000000000000000000000000000000000000000000000000000000000000000000000000000000000000000000000000000000000000000000000000000000000000000000000000000000000000000000000000000000000000000000000000000000000000000000000000000000000000000000000000000000000000000000000000000000000000000000000000000000000000000000000140000000000000000000000000000000000000000000000000000000000000000000000000000005400000000000000000000000000000000000000000000000000000000000000000000000000000054000000000000000000000000000000000000000000000000000000000000000000000000000000540000000000000000000000000000000000000000000000000000000000000000000000000000005400000000000000000000000000000000000000000000000000000000000000000000000000000054000000000000000000000000000000000000000000000000000000000000000000000000005454240000000000000000000000000000000000000000000000000000000000000000000000000000000000000000000000000000000000000000000000000000000000000000000000000000000000000000000000000000000000000000000000000000000000000000000000000000000000000000000000000000000000000000000000000000000000000000000000000000000000000000000000000000000000000000000000000000000000000000000000000000000000000000000000000000000000000000000000000000000000000000000000000000000000000000000000000000000000000000000000000000000000000000000000000000000000000000000000000000000000000000000000000000000000000000000000000000000000000000000000000000000000000000000000000000000000000000000000000000000000000000000000000000000000000000000000000000000000000000000000000000000000000000000000000000000000000000000000000000000000000000000000000000000000000000000000000000000000000000000000000000000000000000000000000000000000000000000000000000000000000000000000000000000000000000000000000000000000000000000000
#053931:000000000000000000000000005400540054005400540054000000000000000000000000000000000000000000000000
#053970:000000000000000000000000000000000000000000000000000000000000000000000000000000000000000000000000000000000000000000000000000000000000000000000000000000000000000000000000000000000000000000000000000000000000000000000000000000000000000000000000000000000000000000000000000000000000000000000000000000000000000000000000000000000000000000000000000000000000000000000000000000000000000000000000000000000000000000000000000000000000000000000000000000000000000000000000000000000000000000000000000000000000000000000000000000000000000000000000000000000000000000000000000000000000000000000000000000000000000000000000000000000000000000000000000000000000000000000000000000000000000000000000000000000000000000000000000000000000000000000000000000000000000000000000000000000000000000000000000000000000000000000000000000000000000000000000000000000000000000000000000000000000000000000000000000000000000000000000000000000000000000000000000000000000000000000000000000000000000000000000140000000000000000000000000000000000000000000000000000000000000000000000000000005400000000000000000000000000000000000000000000000000000000000000000000000000000054000000000000000000000000000000000000000000000000000000000000000000000000000000540000000000000000000000000000000000000000000000000000000000000000000000000000005400000000000000000000000000000000000000000000000000000000000000000000000000000054000000000000000000000000000000000000000000000000000000000000000000000000005454240000000000000000000000000000000000000000000000000000000000000000000000000000000000000000000000000000000000000000000000000000000000000000000000000000000000000000000000000000000000000000000000000000000000000000000000000000000000000000000000000000000000000000000000000000000000000000000000000000000000000000000000000000000000000000000000000000000000000000000000000000000000000000000000000000000000000000000000000000000000000000000000000000000000000000000000000000000000000000000000
#053980:000000000000000000000000000000000000000000000000005400540054005400540054000000000000000000000000
