This file was generated by Ched 2.7.0.0.
#TITLE ""
#ARTIST ""
#DESIGNER ""
#DIFFICULTY 0
#PLAYLEVEL
#SONGID ""
#WAVE ""
#WAVEOFFSET 0
#JACKET ""
#REQUEST "ticks_per_beat 480"
#00002: 4
#BPM01: 156
#00008: 01
#TIL00: ""
#VOLUME: ""
#HISPEED 00
#MEASUREHS 00
#02012:00000013
#02018:000000000000000000000013
#02010:0041
#02112:000000130000000033130000
#0211b:00130000
#02115:230000000000130000000033
#02415:00000013
#02418:130000000000000000000013
#0241b:000033130000000000130000
#0251b:00130000
#02518:000000000013000000000000
#02515:000000130000000034140000
#02512:240000000000140000000034
#03612:14
#0361a:000000000014000000000000
#03618:000000000000000000000014
#03613:00140000
#03619:001400000000
#06413:00140000
#06417:000000000014000000000000
#06412:0014
#06414:14
#05019:001500000000000000000000
#05718:001300000000
#05712:23
#05714:00230000
#05716:0023
#05710:0041
#0621a:00141400
#06212:14
#06215:000000000014000000000000
#06217:00000014
#06615:15
#06612:0016
#06519:0015
#06516:14
#07117:00140014
#07114:0014
#0711a:14
#07112:14
#07015:00000014
#07018:0024
#05616:14
#0561a:0024
#0561f:0021
#05617:00340000000000000000000000000000
#05618:0034000000000000
#05619:00000034000000000000000000000000
#0301a:0014
#03017:00000014
#03010:0041
#00412:14
#00415:0013
#0041a:14
#00418:0013
#01318:00130000
#0131b:13
#01315:0013
#01312:00000013
#04112:140000000000000000000000141513151315000000000000
#04117:000000000000000000000000001300130013000000000000
#04115:000000140000001515000000
#0411a:00140000
#04116:0024
#06818:0014
#06814:0014
#0681a:24
#03416:2400000000000014
#0341a:0014
#0351a:00000000001400000000000000000000
#0061a:14
#00614:000014000000000000140000
#00610:41
#00712:14
#00718:000014000000000000140000
#00518:000014
#00514:00000014
#00512:0024
#00916:00140000
#00918:00000014
#00914:000014
#00912:14
#0091a:0024
#01215:0014
#01212:14
#0121a:0024
#01515:00130000
#01512:13
#01518:0013
#0151b:00000013
#01715:00130013
#01718:1313
#01918:1414
#01914:00140014
#02215:130000000000000000000013
#02212:000033130000000000000000
#0221b:00000013
#0231b:000000130000000033130000
#02312:00130000
#02318:230000000000130000000033
#02612:14000013
#02615:000034140000000000000013
#02618:00000013
#02712:00130000
#02715:000000000013000000000000
#02718:00130000
#0271a:240000000000140000000034
#02717:000000000000000034140000
#0281a:1424
#02817:000034140000000000000000
#02812:00000024
#03112:0014
#03115:00000014
#03113:24
#0321a:0014
#03217:00000014
#03218:24
#03315:24000014
#03312:0024
#0371a:0014
#03712:0014
#03714:00000024
#03812:0016
#03816:24
#03818:00242600
#03810:0041
#03912:14
#03915:00140000
#0391a:00140000
#03918:0024
#0401a:14
#04017:00140000
#04012:00140000
#04015:0024
#04216:0000140000000014
#04212:0014
#0421a:14
#04312:00000000001400000000000000000000
#04618:0016
#04616:240036
#04614:00240000
#04612:0026
#04617:000000000000003600000000
#04610:00000041
#04915:13
#04918:13
#05215:14
#05412:0014
#0551a:000000140000000000000000000000003400140000000000
#05516:000000000034140000000034
#05814:001400000000
#05816:0024
#05818:00240000
#0581a:24
#0591a:14
#05918:000000140000000000000013
#05914:00140000
#05912:24
#06016:0000000000000014
#0601a:0014
#06014:14
#06017:00140000
#0611a:00000000001400000000000000000000
#01012:14
#01018:000014000000000000140000
#0111a:14
#01114:000014000000000000140000
#01417:0014
#0141a:14
#01412:0024
#01615:0014
#01612:14
#0161a:0024
#07512:0014
#07516:00140014
#0751a:14
#0761a:1424
#07618:000000140000000000000014
#07614:001400000000
#07612:00002414
#07718:00140000
#0771a:00002414
#07714:140000000000000000000014
#07712:0024
#00812:14
#00816:00140014
#0081a:0024
#0441a:14
#04412:000000000014000000000000
#04414:000000000000000000000014
#04419:00140000
#04413:001400000000
#04512:0014
#04518:00000024
#0451a:0024
#0721a:14
#07212:0024
#0481f:0011
#04812:0024
#0481a:0024
#0181a:24
#01812:24
#02912:24242400
#07814:00240000
#07818:24
#00314:28
#04715:0026
#00216:003434343434343434343434
#02155:0053
#02152:00000063
#05059:002500000000000000000000
#06655:25
#06652:0056
#06559:0055
#06556:24
#06452:0054
#05656:54
#0565a:0014
#0305a:0064
#03057:00000024
#00354:18
#00452:64
#00455:0023
#0045a:54
#00458:0023
#04156:0054
#04155:000000240000005555000000
#04152:540000000000000000000000542553255325000000000000
#04157:000000000000000000000000002300230023000000000000
#04755:0016
#0625a:0064
#06257:00000064
#0635a:0014
#06858:0054
#06854:0064
#0685a:24
#03456:0000000000000064
#0345a:0064
#0355a:00000000002400000000000000000000
#00658:0014
#00754:0014
#01255:0064
#01252:24
#02058:0014
#02255:5313
#02252:00630000
#02358:0063
#0235b:00000053
#02458:6313
#0245b:00530000
#02552:0064
#02555:00000054
#02652:6414
#02655:00540000
#0275a:0054
#02757:00000064
#0285a:5414
#02857:00640000
#03152:0054
#03155:00000024
#0325a:0064
#03257:00000024
#03355:00000024
#03352:0054
#03852:0016
#03858:0016
#03952:54
#03955:00240000
#0405a:64
#04057:00240000
#04256:0000000000000054
#04252:0054
#04352:00000000002400000000000000000000
#04658:0066
#00552:14
#0055a:14
#04955:23
#04958:23
#05255:54
#05452:0054
#0555a:0064000000006400
#05556:0054
#0595a:5414
#05958:00540000
#05954:00640000
#05952:5414
#06056:0000000000000064
#0605a:0064
#0615a:00000000002400000000000000000000
#06755:0016
#07154:0014
#01054:0014
#01158:0014
#01457:0054
#0145a:24
#01655:0064
#01652:24
#07854:00140000
#07858:14
#07758:00140000
#07754:14
#07252:0054
#0725a:54
#07454:0018
#04852:0054
#0485a:0054
#07058:0014
#002360:143434343434343434343434
#003340:28
#004320:14
#004350:0053
#005320:24
#0043a1:14
#004381:0053
#0053a1:24
#006381:000000140034240000000000
#007341:000000140034240000000000
#010341:000000140034240000000000
#011381:000000140034240000000000
#012321:14
#012351:0034
#013321:24
#0143a1:14
#014371:0034
#0153a1:24
#016321:14
#016351:0034
#017321:24
#020381:143434003400340034003400240000000000000000000000
#021351:000000000000130000000033
#021321:000000000000000033330000
#022351:3323
#022321:000033330000000000000000
#023381:000000000000130000000033
#0233b1:000000000000000033330000
#024381:3323
#0243b1:000033330000000000000000
#025321:000000000000140000000034
#025351:000000000000000034340000
#026321:3424
#026351:000034340000000000000000
#0273a1:000000000000140000000034
#027371:000000000000000034340000
#0283a1:3424
#028371:000034340000000000000000
#0303a1:0014
#030371:00000054
#0313a1:34240000
#031330:14240000
#031320:0014
#031350:00000054
#032320:34240000
#032381:14240000
#0323a1:0014
#032371:00000054
#0333a1:34240000
#033350:14240000
#033320:0014
#033350:00000054
#034320:34240000
#034361:14240000
#0343a1:0014
#034361:0000000000000034
#0353a1:00000000005400000000000000000000
#035361:00000024
#036341:00001424
#037321:14240000
#039321:14003424
#039351:00540000
#039380:00001424
#0403a0:14003424
#040370:00540000
#040351:00001424
#041321:140000000000000000000000345553555355240000000000
#041351:00540000
#041360:00001424
#041370:000000000000000000000000005300530053000000000000
#041350:000000000000005555000000
#042320:0014
#042360:0000000000000034
#043320:00000000005400000000000000000000
#043360:00000024
#044380:00001424
#0453a0:14240000
#046380:0016
#046370:000000000000003600000000
#046360:000036
#046350:000000000000000000360036
#047350:003600360036260000000000
#048320:0014
#049350:53
#049320:0024
#0483a1:0014
#049381:53
#0493a1:0024
#050391:153500000000000000000000
#050381:003500000000000000000000000000000000000000000000
#051361:25
#051321:00140034
#051331:000034003434
#051341:000000000034003400000034
#051351:0034
#052351:34
#052321:0024
#0523a0:0014
#052390:000000000000003400000034
#052380:000000003434
#052370:00000034
#0533a0:34
#053390:003400000000000000000000
#053380:003400000000
#053370:00240000
#053331:000000000000143434343434340000000000000034000000
#053321:000000000000000000000000000000000000000000000000000000000000000000000000000000000000000000000000000000000000000000000000000000000000000000000000000000000000000000000000000000000000000000000000000000000000000000000000000000000000000000000000000000000000000000000000000000000000000000000000000000000000000000000000000000000000000000000000000000000000000000000000000000000000000000000000000000000000000000000000000000000000000000000000000000000000000000000000000000000000000000000000000000000000000000000000000000000000000000000000000000000000000000000000000000000000000000000000000000000000000000000000000000000000000000000000000000000000000000000000000000000000000000000000000000000000000000000000000000000000000000000000000000000000000000000000000000000000000000000000000000000000000000000000000000000000000000000000000000000000000000000000000000000000000000000000000000000000000000000000000000000000000000000000000000000000000000000000000000000000000000000000005400000000000000000000000000000000000000000000000000000000000000000000000000003400000000000000000000000000000000000000000000000000000000000000000000000000000034000000000000000000000000000000000000000000000000000000000000000000000000000000340000000000000000000000000000000000000000000000000000000000000000000000000000003400000000000000000000000000000000000000000000000000000000000000000000000000000034000000000000000000000000000000000000000000000000000000000000000000000000000000340000000000000000000000000000000000000000000000000000000000000000000000000000000000000000000000000000000000000000000000000000000000000000000000000000000000000000000000000000000000000000000000000000000000000000000000000000000000000000000000000000000000000000000000000000000000000000000000000000000000000000000000000000000000000000000000000000000000000000000000000000000000000000000000000000000000000000000000000000000000000000000000000000000000000000000000000000000000000000000000
#053341:000000000000000000000034
#054351:343400000000000000000000
#054341:003400000000
#054331:00340000
#054321:000034340000
#054361:00000024
#0543a0:0000000000001434
#0553a0:340000340000000000000000000000003400340000000000
#055360:000000000034340000000034
#056360:34
#056370:00340000000000000000000000000000
#056380:0034000000000000
#056390:00000034000000000000000000000000
#0563a0:000000340034240000000000
#057360:00001323
#0573b1:00001323
#058361:00001424
#058320:00001424
#0593a0:1424
#059380:00340000
#059321:1424
#059341:00340000
#0603a1:0014
#060361:0000000000000034
#0613a1:00000000005400000000000000000000
#061361:00000024
#0623a1:0014
#062371:00000034
#0633a1:0024
#064321:0014
#065361:54
#065321:0024
#065390:0015
#066350:55
#066390:0025
#066321:0016
#067351:0026
#0683a1:14
#068381:0034
#0703b1:23
#068340:0014
#070320:23
#0723a0:14
#072360:0024
#072321:0014
#073361:54
#074341:0028
