This file was generated by Ched 2.7.0.0.
#TITLE ""
#ARTIST ""
#DESIGNER ""
#DIFFICULTY 0
#PLAYLEVEL
#SONGID ""
#WAVE ""
#WAVEOFFSET 0
#JACKET ""
#REQUEST "ticks_per_beat 480"
#00002: 4
#BPM01: 196
#00008: 01
#TIL00: ""
#VOLUME: ""
#HISPEED 00
#MEASUREHS 00
#04816:00000016
#04818:26
#00314:14
#0191a:14
#02014:14
#02114:14
#02218:14
#02318:14
#0021a:14
#00210:41
#00418:14
#00512:14
#0061a:14
#00714:14
#00818:14
#00912:14
#0181a:14
#03412:0016
#03418:26
#0341f:21
#03410:0041
#03518:1616
#03612:16
#03618:0016
#03712:1616
#04212:0016
#04218:26
#04318:16
#04312:0016
#04418:1616
#04512:1616
#05214:00000016
#05212:26
#05412:0016
#05418:26
#05612:16
#05618:0016
#05818:16
#05812:0016
#06012:16
#06018:0016
#06112:16
#06118:0016
#06218:0016
#06212:26
#06418:16
#06412:0016
#06612:16
#06618:0016
#06818:16
#06812:0016
#07114:14
#0701a:14
#07218:14
#07312:14
#0741a:14
#07514:14
#0241f:0000000000000011
#02412:24
#02410:41
#06918:26
#06912:0026
#02512:24
#01410:41
#05010:41
#06510:0000000000000041
#04858:66
#04856:00000026
#05254:00000026
#05252:56
#000330:1400000000000034
#001330:0024
#0103a0:14
#0113a0:24
#012340:14
#013340:24
#014380:14
#015380:24
#016320:14
#017320:24
#0263a0:14
#027380:34
#028380:34
#0293a0:24
#030320:14
#031340:34
#032340:34
#033320:24
#038380:16
#038360:00000036
#039380:0026
#040320:16
#040340:00000036
#041320:0026
#046380:1626
#047320:1626
#048380:16
#048360:00000056
#049380:0026
#050320:1626
#051380:1626
#052320:16
#052340:00000056
#053320:0026
#055380:16362600
#057320:16362600
#059380:16362600
#063320:16362600
#065380:16362600
#067320:16362600
#076380:1400000000000034
#077380:0024
