This file was generated by Ched 2.7.0.0.
#TITLE ""
#ARTIST ""
#DESIGNER ""
#DIFFICULTY 0
#PLAYLEVEL
#SONGID ""
#WAVE ""
#WAVEOFFSET 0
#JACKET ""
#REQUEST "ticks_per_beat 480"
#00002: 4
#BPM01: 196
#00008: 01
#TIL00: ""
#VOLUME: ""
#HISPEED 00
#MEASUREHS 00
#02512:1515
#02517:00150000
#02618:14
#02714:14
#0281a:14
#04314:14
#04318:00140000
#04312:0014
#0431a:00000014
#04817:0014
#0481a:24
#02912:14
#00218:0014
#00212:24
#00210:41
#00312:1414
#00318:00140014
#00414:14
#0041a:0014
#00514:14
#0051a:00140000
#00614:0014
#0061a:24
#00714:00140014
#0071a:1414
#00916:00140000
#0091a:14
#0101a:14
#01014:0014
#0111a:14
#01212:14
#01218:0014
#01312:14
#0141a:14
#01414:0014
#01410:41
#01612:14
#01618:0014
#01814:0014
#0181a:24
#01918:14
#01912:0014
#0201a:14
#02014:0014
#02118:14
#02112:0014
#0221a:14
#02214:0014
#02318:14
#02312:0014
#03012:00140000
#03014:00000014
#0301a:0014
#03018:24
#03112:00140000
#03114:00000014
#0311a:0014
#03118:24
#0341a:14
#03414:00140000
#03418:0014
#03412:00000014
#0341f:21
#03410:0041
#03518:14
#03514:00140000
#0351a:0014
#03612:14
#03618:00140000
#03614:0014
#0361a:00000014
#03714:14
#03718:00140000
#03712:0014
#0381a:14
#03814:00140000
#03818:0014
#03812:00000024
#0391a:00140000
#03914:0014
#03918:00000014
#04012:14
#04018:00140000
#04014:0014
#0401a:00000024
#04512:1616
#04518:00160000
#04718:0014
#04714:00140000
#04712:00000014
#0471a:24
#04614:00140000
#04618:0014
#04612:00000014
#0461a:24
#05312:14
#05114:0014
#05118:00140000
#0511a:00000014
#05112:24
#05018:00140000
#05014:0014
#0501a:00000014
#05012:24
#05010:41
#05418:00140014
#05412:0014
#0561a:00140014
#05614:0014
#05818:00140014
#05812:0014
#0601a:14
#06012:0014
#06214:00140014
#0621a:2414
#06412:00140014
#06418:0014
#06812:14
#0681a:0014
#06614:00140014
#0661a:0014
#07014:0014
#0701a:24
#0711a:1414
#07114:00140014
#07218:14
#07212:0014
#07318:14
#07312:00140000
#07418:0014
#07412:24
#07518:00140014
#07512:1414
#01712:14
#0151a:14
#05215:0014
#05212:24
#04414:14
#04418:0014
#0241f:0000000000000011
#02419:2525
#02414:00250000
#02410:41
#03319:25252500
#03312:25252500
#04214:24
#04218:00240000
#04212:0024
#0421a:00000024
#06918:00240000
#06914:24
#06912:0024
#0691a:0024
#06114:0024
#06118:24
#05513:0034000000000000
#05514:00340000
#05713:0034000000000000
#05712:00340000
#06319:0034000000000000
#06318:00340000
#06519:0034000000000000
#0651a:00340000
#06510:0000000000000041
#05913:0034000000000000
#05914:00340000
#06719:0034000000000000
#06718:00340000
#00019:5400000054000054
#00119:00545464
#03352:0015
#03359:0015
#02552:0015
#02658:64
#02754:54
#0285a:54
#0485a:64
#04857:0024
#06154:0054
#06152:00000014
#0615a:00140000
#06158:54
#02459:0015
#02952:64
#03852:00000014
#0405a:00000064
#0355a:0014
#03752:0014
#04552:0016
#05252:54
#05255:0024
#05352:5400000000000016
#05554:0000000000000014
#05752:0000000000000014
#0605a:64
#06052:0054
#06852:54
#0685a:0064
#06358:0000000000000014
#0655a:0000000000000014
#06952:0014
#0695a:0014
#00159:00000014
#01752:54
#0155a:54
#04454:64
#04458:0054
#005340:00001424
#008380:14240000
#008340:00001424
#009320:00001424
#0153a0:14
#015380:0024
#017320:14
#017340:0024
#026380:14
#0263a0:0024
#027340:14
#027320:0024
#0283a0:14
#028380:0024
#029320:14
#029340:0024
#032380:14240000
#032340:00001424
#0403a0:00000014
#041380:0024
#044340:14
#044320:00240000
#044380:0014
#0443a0:00000024
#0483a0:14
#048370:0054
#0493a0:24
#052320:14
#052350:0054
#053320:3400000000000026
#055320:14
#055330:0034000000000000
#055340:0000343400000024
#057340:14
#057330:0034000000000000
#057320:0000343400000024
#059320:14
#059330:0034000000000000
#059340:0000343400002400
#0603a0:14
#060380:00240000
#060320:0014
#060340:00000024
#061380:14
#0613a0:00240000
#061340:0014
#061320:00000024
#0633a0:14
#063390:0034000000000000
#063380:0000343400000024
#065380:14
#065390:0034000000000000
#0653a0:0000343400000024
#0673a0:14
#067390:0034000000000000
#067380:0000343400002400
#068320:14
#068340:00240000
#0683a0:0014
#068380:00000024
#073380:00001424
#076340:14240000
#076380:0000000014003434
#077380:0034340024000000
#000990:1400000000000054
#001990:00000024
