This file was generated by Ched 2.7.0.0.
#TITLE ""
#ARTIST ""
#DESIGNER ""
#DIFFICULTY 0
#PLAYLEVEL
#SONGID ""
#WAVE ""
#WAVEOFFSET 0
#JACKET ""
#REQUEST "ticks_per_beat 480"
#00002: 4
#BPM01: 135
#00008: 01
#TIL00: ""
#VOLUME: ""
#HISPEED 00
#MEASUREHS 00
#0051a:1400001400000000
#00518:00120000
#00512:00230023
#0091a:14
#00912:1400001400000000
#00916:00120000
#0091b:00230023
#01317:1313
#01316:00130013
#01319:0000001300000013
#01314:0013000000130000
#0131b:00130013
#01312:2413
#01310:41
#01417:13
#01412:1313
#01418:0000130000000013
#01415:0013001300000000
#0141b:0013
#0171b:13000013
#01715:0000001300000000
#01718:0000000013000013
#01712:24130000
#01815:1300130000000013
#01812:0013000013000000
#01818:0000001300000000
#0181b:0013
#01615:0000130000000013
#0161b:13
#01618:0013000000000000
#01612:0000001300000000
#0161a:0014
#01915:13
#01918:0000131300000000
#01912:0000330000000013
#02012:13000013
#0201b:0000131300000000
#02014:0000000000000013
#03112:22121212
#03116:0000001400000014
#0311a:2400000000140000
#03212:22121212
#03216:1400000000140000
#0321a:0000001400000014
#03915:00130013
#03912:2313
#0391a:2400001400000014
#03916:0000000000140000
#04015:00130013
#04012:2313
#04016:0000001400000014
#0401a:2400000000140000
#0471b:2313000013130000
#04712:00130013
#04714:0000001300000013
#04716:0013
#04717:00130013
#0471f:11
#04816:13
#04818:0000130000130000
#04815:0000001300000013
#04812:0013
#0481b:1313000000000000
#05318:0013000000130000
#05315:00130013
#05312:2300001300000013
#0541b:13000013
#05415:0000131300000000
#05418:0000000000000013
#0631a:12000052
#06314:0000120000000012
#06316:0000001200001200
#06318:00521200
#06216:0000000000000012
#06212:1300001300000000
#0621b:0000131300000000
#06215:0013000000000000
#06218:13
#06412:12
#0641a:00120000
#06418:0000001200000012
#06416:00001252
#06414:00520000
#06716:1212
#0671a:0000120000000012
#06718:0012001200001200
#06714:00000052
#06614:0000120000000012
#0661c:12
#06616:0000001200000000
#06618:00001252
#0661a:00520000
#06818:12001252
#06816:0012001200000000
#06814:0000120000000012
#06914:12
#06918:0000121200000000
#0691a:0000000000520012
#06916:00520000
#0021a:1400001400000000
#00216:00120000
#00312:1400001400000000
#00318:00120000
#0041a:1400001400000000
#00416:00120000
#01219:0000000000000013
#01212:13
#01217:12
#0121b:00000013
#00616:1400001400000000
#0061a:00120000
#00612:00230023
#0071a:1400001400000000
#00718:00120000
#00712:00230023
#00816:1400001400000000
#0081a:00120000
#00812:00230023
#01016:1400001400000000
#01014:00120000
#0101b:00230023
#01112:1400001400000000
#01116:00120000
#0111b:00230023
#01515:1300001300000013
#0151b:00130000
#01518:0013
#01512:00000013
#0151a:24
#02116:1313
#02117:00130013
#02114:0000001300000013
#02119:0013000000000000
#02112:00130013
#0211b:0013
#0211a:24
#02110:41
#02216:13
#0221b:1313
#02215:0000130000000013
#02218:0013001300000000
#02212:0013
#02518:0000001300000000
#02515:0013000013000013
#02512:13000013
#0251b:00130000
#0251a:24
#02618:1300130000000013
#0261b:0013000013000000
#02615:0000001300000000
#02612:0013
#02418:0000130000000013
#02412:1314
#02415:0013000000000000
#0241b:0000001300000000
#02318:1300001300000013
#02312:24130000
#02315:0013
#0231b:00000013
#02718:13
#02715:0000131300000000
#0271b:0000330000000013
#0281b:13
#02812:0000131300000000
#02912:1c
#02910:41
#03016:0014001414000000
#0331a:14
#03312:22121212
#03317:0000001300001300
#0331b:0000000013000013
#03319:0000000000130000
#03412:22121212
#03419:00131313
#0341b:0000001300000013
#03417:0000000000130000
#0351c:00121212
#03516:0000001400000014
#03512:2200000000140000
#0361c:22121212
#03616:1400000000140000
#03612:0000001400000014
#03712:1413
#0371c:22121212
#03716:0000001300001300
#03714:0000000000130013
#03818:00120000
#03816:0012
#03812:13
#03817:0000001200000000
#0381c:22
#03810:41
#04115:00130013
#04112:2313
#0411a:0000001400000054
#04117:0014
#04116:24
#04118:0000000000540000
#04119:00000054
#04215:00130013
#04212:2313
#0421a:0014000000140000
#04216:0000001400000014
#04318:00130013
#0431b:0013
#04312:2300001400000014
#04316:2400000000140000
#04418:00130013
#0441b:2313
#04416:0000001400000014
#04412:2400000000140000
#04512:13
#04516:00000013000000000000000014000000
#0451b:2300001300000000
#0451a:0014
#04518:0000000000140000
#04514:0000000000000014
#04510:41
#04612:0014
#04912:2313000013130000
#0491b:00130013
#04919:0000001300000013
#04917:0013
#04916:00130013
#05017:13
#05012:13130000
#05018:0000001300000013
#0501b:0013
#05015:0013000000130000
#0511b:2313000013130000
#05112:00130013
#05114:0000001300000013
#05116:0013
#05117:00130013
#05216:13
#05218:0000130000130000
#05215:0000001300000013
#05212:0013
#0521b:1313000000000000
#0551b:13130013
#05512:24131300
#05517:0000001300000000
#05519:0000000013000013
#05516:0000000000130000
#05514:00000013
#05515:0013000000000000
#0551f:21
#05617:13
#05612:13131400
#05618:0000130000000013
#05615:0013001300000000
#0561a:0014
#05610:41
#05918:0013001300000013
#0591a:0014
#0591b:13130013
#05915:00130013
#05912:2414
#06015:1300130000000013
#06012:0013000013000000
#06018:0000001300000000
#0601b:1300130013000013
#05815:0000130000000013
#0581b:13
#05818:0013000000000000
#05812:0000001300000000
#05816:0014
#06115:1300001300000000
#06118:0000131300000013
#06112:0013000000000013
#0611b:13
#05715:1300000000000013
#0571b:0000130000130000
#05716:0000001400000000
#05718:0013
#05712:0013000013001300
#0571a:24
#06514:12000052
#0651a:0000120000000012
#06518:0000001200001200
#06516:00521200
#0701a:12
#07016:0000121200000000
#01452:0013
#0145b:0013
#0185b:0013
#01852:0013
#01252:53
#01555:63
#01558:0063
#0165a:0014
#0175b:53
#01758:0013
#01955:53
#01958:0000005300000000
#02052:53
#0205b:0000005300000000
#0225b:0013
#02252:0013
#02555:0013
#02652:0013
#0265b:0013
#02358:53
#02355:0053
#02452:0014
#0215b:0013
#02758:63
#02755:0000006300000000
#0285b:63
#02852:0000006300000000
#02952:5c
#03256:14
#0335a:14
#0335b:0000000000000053
#03459:00005353
#03457:0000000000230000
#0345b:0000000000000023
#03559:13
#03656:14
#03752:14
#03852:13
#0405a:14
#04156:14
#0415a:0000000000000014
#04356:14
#04452:14
#04552:53
#04556:00000053000000000000000000000000
#04652:0054
#04858:0000000000530000
#05055:0000000000630000
#05258:0000000000530000
#0545b:53
#05455:0000005300000000
#05352:0000005300000000
#05652:0014
#0565a:0014
#0595a:0014
#0605b:0013
#06052:0013
#06155:5300006300000000
#06158:0000005300000000
#06152:0023000000000000
#06252:5300006300000000
#0625b:0000005300000000
#06255:0023000000000000
#05755:63
#05758:0063
#05752:0023000000000000
#0575b:0000000000230000
#05856:0014
#06358:0052
#0635a:52
#06452:52
#06554:62
#06556:0062
#0665c:62
#06756:0052
#06954:52
#06958:0000005200000000
#0705a:62
#07056:0000006200000000
#012320:13
#012360:00000023
#015350:13
#015320:00230000
#015380:0013
#0153b0:00000023
#0173b0:13
#017370:00230000
#019350:13
#019320:0000333300002300
#019381:0000001300000000
#0193b1:00000023
#020321:13
#020351:0000333300230000
#0203b0:0000001300000000
#020380:0000000000230000
#023380:13
#0233b0:00230000
#023350:0013
#023320:00000023
#027380:13
#0273b0:0000333300002300
#027351:0000001300000000
#027321:00000023
#0283b1:13
#028381:0000333300230000
#028320:0000001300000000
#028350:0000000000230000
#029320:1c
#029360:00000000000000005454545454545454
#029350:0000000000000000000000000000000000560056005600560056005600560056
#030360:24
#0333b0:0000000000000013
#034370:0023000000000000
#034390:00001333
#034370:0000000000330000
#0343b0:0000000000000033
#035390:23
#045320:1300002300000000
#045360:00000033000000000000000000000000
#046320:14545454545454543400000000000000
#046330:0054005400540054005400540054005400000000000000000000000000000000
#047360:24
#048380:0000000000130000
#0483b0:0000000000000023
#050350:0000000000130000
#050320:0000000000000023
#052380:0000000000130000
#0523b0:0000000000000023
#053320:0000001300000000
#053350:0000000000230000
#0543b0:13
#054380:0000333300230000
#054351:0000001300000000
#054321:0000000000230000
#057351:13230000
#057321:0053000000000000
#057381:00001323
#0573b1:0000000000530000
#061351:1300333300000000
#061321:0053000000002300
#061380:0000001300000000
#0613b0:00000023
#062320:1300333300000000
#062350:0053000000230000
#0623b1:0000001300000000
#062381:0000000000230000
#041970:0014
#0419a0:0000000000000024
#0639a0:12
#063980:000000000000000000000000000000000000000000000000000000000052220000000000000000000000000000000000000000000000000000000000000000000000000000000000000000000000000000000000000000000000000000000000000000000000000000000000000000000000000000000000
#063980:0012
#0639a0:000000000000000000000000000000000000000000000000000000000000000000000000000000000000000000000000000000000000000000000000000000000000000000000000000000000000000000000000000000000052220000000000000000000000000000000000000000000000000000000000
#064920:12
#064940:000000000000000000000000000000000000000000000000000000000000000000000000000000000000000000000000000000000000000000000052220000000000000000000000000000000000000000000000000000000000000000000000000000000000000000000000000000000000000000000000000000000000000000000000000000000000000000000000000000000000000000000000000000000000000000000000000000000000000000000000000000000000000000000000000000000000000000000000000000000000000000000000000000000000000000000000000000000000000000000000
#064960:000000000000000000000000000000000000000000000000000000000000000000000000000000000000000000000000000000000000000000000000000000000000000000000000000000000000000000000000000000000000000000000000000000000000000000000000000000000000000000000000120000000000000000000000000000000000000000000000000000000000000000000000000000000000000000000000000000000000000000000052220000000000000000000000000000000000000000000000000000000000000000000000000000000000000000000000000000000000000000000000
#065940:12
#065960:000000000000000000000000000000000000000000000000000000000000000000000000000000000000000000000000000000000000000000000052220000000000000000000000000000000000000000000000000000000000000000000000000000000000000000000000000000000000000000000000000000000000000000000000000000000000000000000000000000000000000000000000000000000000000000000000000000000000000000000000000000000000000000000000000000000000000000000000000000000000000000000000000000000000000000000000000000000000000000000000
#065960:0012
#065940:000000000000000000000000000000000000000000000000000000000000000000000000000000000000000000000000000000000000000000000000000000000000000000000000000000000000000000000000000000000000000000000000000000000000000000000000000000000000000000000000000000000000000000000000000000000000000000000000000000000000000000000000000000000000000000000000000000000000000000000052220000000000000000000000000000000000000000000000000000000000000000000000000000000000000000000000000000000000000000000000
#0669c0:12
#0669a0:000000000000000000000000000000000000000000000000000000000000000000000000000000000000000000000000000000000000000000000052220000000000000000000000000000000000000000000000000000000000000000000000000000000000000000000000000000000000000000000000000000000000000000000000000000000000000000000000000000000000000000000000000000000000000000000000000000000000000000000000000000000000000000000000000000000000000000000000000000000000000000000000000000000000000000000000000000000000000000000000
#066980:000000000000000000000000000000000000000000000000000000000000000000000000000000000000000000000000000000000000000000000000000000000000000000000000000000000000000000000000000000000000000000000000000000000000000000000000000000000000000000000000120000000000000000000000000000000000000000000000000000000000000000000000000000000000000000000000000000000000000000000052220000000000000000000000000000000000000000000000000000000000000000000000000000000000000000000000000000000000000000000000
#067960:0012
#067940:000000000000000000000000000000000000000000000000000000000000000000000000000000000000000000000000000000000000000000000000000000000000000000000000000000000000000000000000000000000000000000000000000000000000000000000000000000000000000000000000000000000000000000000000000000000000000000000000000000000000000000000000000000000000000000000000000000000000000000000052220000000000000000000000000000000000000000000000000000000000000000000000000000000000000000000000000000000000000000000000
#068980:000000000000000000000000000000000000000000000000000000000000000000000000000000000000000000000000000000000000000000000000000000000000000000000000000000000000000000000000000000000000000000000000000000000000000000000000000000000000000000000000120000000000000000000000000000000000000000000000000000000000000000000000000000000000000000000000000000000000000000000052220000000000000000000000000000000000000000000000000000000000000000000000000000000000000000000000000000000000000000000000
#069940:12
#069960:000000000000000000000000000000000000000000000000000000000000000000000000000000000000000000000000000000000000000000000052220000000000000000000000000000000000000000000000000000000000000000000000000000000000000000000000000000000000000000000000000000000000000000000000000000000000000000000000000000000000000000000000000000000000000000000000000000000000000000000000000000000000000000000000000000000000000000000000000000000000000000000000000000000000000000000000000000000000000000000000
#069980:0000001200000000
#0699a0:000000000000000000000000000000000000000000000000000000000000000000000000000000000000000000000000000000000000000000000000000000000000000000000000000000000000000000000000000000000000000000000000000000000000000000000000000000000000000000000000000000000000000000000000000000000000000000000000000000000052220000000000000000000000000000000000000000000000000000000000000000000000000000000000000000000000000000000000000000000000000000000000000000000000000000000000000000000000000000000000
#0709a0:12
#070980:00220000
#070960:0000001200000000
#070940:0000000000220000
