This file was generated by Ched 2.7.0.0.
#TITLE ""
#ARTIST ""
#DESIGNER ""
#DIFFICULTY 0
#PLAYLEVEL
#SONGID ""
#WAVE ""
#WAVEOFFSET 0
#JACKET ""
#REQUEST "ticks_per_beat 480"
#00002: 4
#BPM01: 135
#00008: 01
#TIL00: ""
#VOLUME: ""
#HISPEED 00
#MEASUREHS 00
#01318:0000001300001300
#01315:0000000013000013
#0131b:00130000
#01312:24
#01310:41
#01412:13
#01415:00131300
#01418:0013001300000000
#03912:24001313
#0391a:2400001400000014
#03916:0000000000140000
#04718:0000001300000013
#04715:0013000013130000
#0471b:00130013
#0471f:11
#04815:1313001300000000
#0481b:00130000
#04818:0013
#04812:0000000000130000
#05315:0013000000001300
#05318:0000130000130000
#0531b:2300000000000013
#05312:0000001300000000
#0541b:13
#05415:0000131300000000
#06219:0000000000000012
#0621b:13
#06215:0000131300000000
#06314:00120000
#06318:0000001200000000
#0631a:00000012
#06316:0000000012000012
#06319:12
#06418:1200001200000000
#0641a:00120000
#06416:0012
#06415:0000000000000012
#06414:0012000000000000
#06716:1212
#06714:0000120000000012
#06718:0012001200000000
#0671a:00000012
#0661a:0012000000000012
#06616:1200001200000000
#06614:00120000
#06618:0012
#06816:1200001200000000
#06818:0012000012000000
#0681a:00120000
#06814:0000000000000012
#06918:0000121200000000
#06914:12
#0691a:0000000000000012
#0021b:13
#00218:0000001300000000
#00215:00130000
#01218:13
#01512:00130000
#01518:0000001300000013
#01515:0013
#0151a:24
#01612:1300001300000000
#01618:0013000013000000
#01615:00130000
#02115:0000001300001300
#0211b:0000000000000013
#02112:00130000
#02118:0013
#0211a:24
#02110:41
#02218:13131300
#02212:0000001300000000
#02215:0013000000000000
#03018:0013001300000000
#03012:0013
#0311b:0000001300130013
#03115:00001313
#03112:23
#0311a:24
#03418:0000001300130000
#03415:00130013
#03412:0013
#0341b:0000000000000013
#03712:0000001300001300
#03718:0013
#03715:1400000000130000
#0371b:0000000000000013
#03816:14
#03810:41
#04218:00130013
#0421b:0013
#04212:0014000000140000
#04214:0000001400000014
#0451b:0013
#04515:00000014000000000000130000000000
#04518:00000013
#04512:1400000000000013
#04510:41
#00312:13
#00315:0000001300000000
#00318:00130000
#0041b:13
#00418:0000001300000000
#00415:00130000
#00512:13000023
#00515:0000231300000000
#00518:00130000
#0061b:13000023
#00618:0000231300000000
#00615:00130000
#00712:13000023
#00715:0000231300000000
#00718:00130000
#0081b:13000023
#00818:0000231300000000
#00815:00130000
#00912:13000023
#00915:0000231300000000
#00918:00130000
#0101b:13000023
#01018:0000231300000000
#01015:00130000
#01112:13000023
#01115:0000231300000000
#01118:00130000
#01715:0000001300001313
#01718:0013
#0171b:00130000
#01712:24
#0181b:1313
#01815:0013000000000000
#01818:00130000
#01812:0000001300000013
#01912:13
#01918:0000131300000000
#0191b:0000000000000013
#0201b:13
#02015:0000131300000000
#0231b:00130000
#02315:0000001300000013
#02318:0013
#02312:24
#0241b:1300001300000000
#02415:0013000013000000
#02418:00130000
#02518:0000001300001313
#02515:0013
#02512:00130000
#0251a:24
#02612:1313
#02618:0013000000000000
#02615:00130000
#0261b:0000001300000013
#0271b:13
#02715:0000131300000000
#02712:0000000000000013
#02812:13
#02818:0000131300000000
#02912:16
#02910:41
#03215:14
#03212:0000001300130013
#03218:00001313
#03317:14
#0331b:0000001300130013
#03315:00001313
#03512:1300001300130013
#03518:00001313
#03617:14
#0361b:0000001300130013
#03615:00001313
#0401b:00001313
#04012:0000001400000014
#04016:2400000000140000
#0411b:0000001300000013
#04115:0013
#04118:0000000000130000
#04112:00000013
#04116:24
#0431b:00001313
#04312:0000001400000014
#04316:0000000000140000
#0431a:24
#04412:00001313
#0441a:0000001400000014
#04416:2400000000140000
#0461b:0013
#04918:2313000013130000
#04915:0000001300000013
#04912:00130013
#05018:1313001300000000
#05012:00130000
#05015:0013
#0501b:0000000000130000
#05118:0000001300000013
#05115:2313000013130000
#0511b:00130013
#05215:1313001300000000
#0521b:00130000
#05218:0013
#05212:0000000000130000
#05518:0000001300001300
#05512:2400000000000013
#0551b:00130000
#05515:0013
#0551f:21
#05615:13131300
#0561b:0000001300000000
#05618:0013000000000000
#05610:41
#05712:00130000
#05718:0000001300000013
#05715:0013
#0571a:24
#05812:1300001300000000
#05818:0013000013000000
#05815:00130000
#05915:0000001300001313
#05918:0013
#0591b:00130000
#05912:24
#0601b:1313
#06015:0013000000000000
#06018:00130000
#06012:0000001300000013
#06112:13
#06118:0000131300000000
#0611b:0000000000000013
#0651a:00120000
#06516:0000001200000000
#06514:00000012
#06518:0000000012000012
#06515:12
#07016:0000121200000000
#0701a:12
#01455:0013
#01258:53
#01555:0053
#01658:0013
#02258:0013
#02158:0013
#03856:14
#04056:14
#0435a:14
#04852:0000000000530000
#0545b:53
#05455:0000005300000000
#01758:0013
#0185b:0013
#01952:53
#01958:0000005300000000
#0205b:63
#02055:0000006300000000
#02358:0063
#02455:0013
#02555:0013
#02652:0013
#0275b:63
#02755:0000006300000000
#02852:53
#02858:0000005300000000
#02952:56
#03255:14
#03357:14
#0335b:0000000000000053
#03552:13
#03657:14
#03755:14
#04156:14
#0415b:0000000000000013
#04456:14
#04552:54
#04555:00000054000000000000000000000000
#0465b:0063
#0505b:0000000000630000
#05252:0000000000530000
#05655:0013
#05555:0013
#05755:0053
#05858:0013
#05958:0013
#0605b:0013
#06152:53
#06158:0000005300000000
#0625b:63
#06255:0000006300000000
#012380:13
#0123b0:00000023
#015350:0013
#015320:00000023
#019320:13
#019350:00230000
#019380:0000001300000000
#0193b0:0000000000230000
#0203b0:13
#020380:00230000
#020350:0000001300000000
#020320:0000000000230000
#023380:0013
#0233b0:00000023
#0273b0:13
#027380:00230000
#027350:0000001300000000
#027320:0000000000230000
#028320:13
#028350:00230000
#028380:0000001300000000
#0283b0:0000000000230000
#029320:16
#030320:23
#0333b0:0000000000000013
#034380:0023000000000000
#045320:1400002400000000
#045350:00000034000000000000000000000000
#0463b0:13535353535353533300000000000000
#0463a0:0053005300530053005300530053005300000000000000000000000000000000
#047380:23
#048320:0000000000130000
#048350:0000000000000023
#0503b0:0000000000130000
#050380:0000000000000023
#052320:0000000000130000
#052350:0000000000000023
#0543b0:13
#054380:00230000
#054350:0000001300000000
#054320:0000000000230000
#057350:0013
#057320:00000023
#061320:13
#061350:00230000
#061380:0000001300000000
#0613b0:0000000000230000
#0623b0:13
#062380:00230000
#062350:0000001300000000
#062320:0000000000230000
#0709a0:1222000000000000
#070960:0000001222000000
