This file was generated by Ched 2.7.0.0.
#TITLE ""
#ARTIST ""
#DESIGNER ""
#DIFFICULTY 0
#PLAYLEVEL
#SONGID ""
#WAVE ""
#WAVEOFFSET 0
#JACKET ""
#REQUEST "ticks_per_beat 480"
#00002: 4
#BPM01: 135
#00008: 01
#TIL00: "46'0:10000.0, 46'720:1.0"
#VOLUME: ""
#HISPEED 00
#MEASUREHS 00
#0051a:1400001400000000
#00518:00120000
#00516:0000001200002200
#00512:00220022
#0091a:14
#00916:14120000
#00912:0000001400000000
#00918:0000001200002200
#0091c:00220022
#0131b:13001313
#01312:28131300
#01317:0013001300000013
#01316:0000130000121200
#01318:00000000000000000000001300000000
#01310:41
#01416:13000000000000000000000000000000000000000000000000000000000000000000000000000000000000000000000000000000000000000000000000000000000000000000000000000000000000000000000000000000000000000000000000000000000000000000000000000000000000000000000000000000000000000000000000000000000000000000000000000000000000000000000000000000000000000000000000000000000000000000000000000000000000000000000000000000000000000000000000000000000000000000000000000000000000000000000000000000000000000000000000000000000000000000000000000000000000000000000000000000000000000000000000000000000000000000000000000000000000000000000000000000000000000000000000000000000000000000000000000000000000000000000000000000000000000000000000000000000000000000000000000000000000000000000000000000000000000000000000000000000000000000000000000000000000000000000000000000000000000000000000000000000000000000000000000000000000000000000000000000000000000000000000000000000000000000000000000000000000000000000000000000000000000000000000000000000000000000000000000000000000000000000000000000000000000000000000000000000000000000000000000000000000000000000000000000000000745400000000000000000000000000000000000000000000000000000000000000000000000000000000000000000000000000000000000000000000000000000000000000000000000000000000000000
#01412:1300130014140000
#0141b:00130000
#01415:0000001300000000
#01417:0013000000000000
#0141a:0000000014140000
#0171b:13130013
#01717:0000001317000000
#01715:0000000000000013
#01712:2813000000001300
#01713:0013
#01718:0000000000000013
#01812:1400000014000013
#01814:0014000000000000
#01816:00140000
#01818:0000001400000000
#0181a:0000000014000014
#03915:0000130000000012
#03912:23001313
#03914:0000001200000000
#0391a:0000001400140014
#03916:24001414
#04015:00130000
#04012:2300000013000012
#04014:0000001200001300
#04016:2400001400140014
#0401a:00001414
#04818:00121200
#04816:1400001200000000
#04812:00141414
#0481b:0000000000130000
#0481a:0014000000000000
#05319:0012000000000000
#05316:00120000
#05313:0000001200000000
#05318:0000000000120000
#05315:00000012
#05312:2400000000000012
#0531c:12
#0531a:00141414
#0631a:12000052
#06312:0012001200120012
#06318:00521200
#0631b:0000001200000000
#06317:0000000000000012
#06212:1300131300000012
#06216:1300131300000000
#06217:0000000000000012
#06418:1200001200005200
#06412:0012001200120000
#0641a:00521200
#06417:0000000000000012
#06818:12121252
#06816:0012000000000000
#06812:0012001200120012
#0681a:0000001200000000
#06817:0000000000000012
#06917:1200001200000000
#06918:0000000000000011
#06919:00520000
#06915:0000000000520000
#0021a:1400001400000000
#00216:1200121200000000
#00218:0000000000121200
#00312:1400001400000000
#00318:1200121200000000
#00316:00000012
#0041a:1400001400000000
#00416:1200121200121200
#01217:0000000000000013
#01219:12
#0121b:00000013
#01215:12
#01212:00000013
#00616:1400001400122200
#0061a:00120000
#0061c:12
#00612:00220022
#0071a:1400001400000000
#00718:00120000
#00716:1200001200002200
#00712:00220022
#00816:1400001400122200
#0081a:00120000
#00812:00220022
#0151b:00131313
#01516:2800001300130012
#01512:13000013
#01517:0013000013000000
#03019:0012000012000000
#03017:0000001200000000
#03015:0012000012000000
#03116:0000001300000013
#0311a:2400000000140000
#03118:00001313
#03112:22
#0321a:1400001400000014
#03216:0000000000130000
#03218:00001313
#03212:22
#03316:1300001300001300
#0331a:0000000014000014
#03318:0000000000130000
#03312:22
#03416:0053130013000000
#0341a:0000001400001400
#03418:0000000000130013
#03412:22
#03818:00120000
#03816:1512
#03817:0000001200000000
#0381c:00120000
#03812:0012
#0381b:23
#03810:41
#04115:00130013
#04112:0013
#04114:2300001200000012
#0411b:0000001300000000
#0411a:2412
#04117:0000000000130013
#04215:00130013
#04212:2313
#04214:0000001200000012
#0421a:12121212
#0421b:0013000000130000
#04217:0000001300000000
#04218:0000000000000013
#0451a:0014
#04512:1400001400140000
#04518:00000013000000000000000014000000
#04514:0000000000000014
#04519:23
#04510:41
#0471c:0012120000121200
#04717:12
#04716:00141414
#04712:0000001200000012
#04718:0000001200120012
#0471f:11
#0471a:24
#07018:11
#07017:0000111100000000
#01016:1400001400000000
#01014:00120000
#01012:12
#01018:0000000000122200
#0101c:00220022
#01112:1400001400000000
#01116:00120000
#01118:1200001200002200
#0111c:00220022
#0161a:1400000014140000
#01618:0014000000000000
#01616:00000000000000000000000000000000000000000000000000000000000000000000000000000000000000000000000000000000000000000000000000000000000000000000000000000000000000000000000000000000000000000000000000000000000000000000000000000000000000000000000000000000000000000000000000000000000000000000000000000000000000000000000000000000140000000000000000000000000000000000000000000000000000000000000000000000000000000000000000000000000000000000000000000000000000000000000000000000000000000000000000000000000000000000000000000000000000000000000000000000000000000000000000000000000000000000000000000000000000000000000000000000000000000000000000000000000000000000000000000000000000000000000000000000000000000000000000000000000000000000000000000000000000000000000000000000000000000000000000000000000000000000000000000000000000000000000000000000000000000000000000000000000000000000000000000000000000000000000000000000000000000000000000000000000000000000000000000000000000000000000000000000000000000000000000000000000000000000000000000000000000000000000000000000000000000000000000000000000000000000000000000000000000000000000000000000000000745400000000000000000000000000000000000000000000000000000000000000000000000000000000000000000000000000000000000000000000000000000000000000000000000000000000000000
#01614:0000001400000000
#01612:1300000014140000
#01912:1300000013001313
#0191b:0000131300000000
#01916:0000000000000013
#0191a:14
#02016:1300131300000013
#02012:1300131300001300
#0201b:00000013
#02112:13001313
#0211b:00131300
#02116:2813001300000013
#02118:0000000000121200
#02117:00130000
#02115:00000000000000000000001300000000
#02110:41
#02217:13
#0221b:13130000
#02212:0000130014140000
#02218:0000001300000000
#0221a:0000000014140000
#02216:00000000000000000000000000000000000000000000000000000000000000000000000000000000000000000000000000000000000000000000000000000000000000000000000000000000000000001300000000000000000000000000000000000000000000000000000000000000000000000000000000000000000000000000000000000000000000000000000000000000000000000000000000000000000000000000000000000000000000000000000000000000000000000000000000000000000000000000000000000000000000000000000000000000000000000000000000000000000000000000000000000000000000000000000000000000000000000000000000000000000000000000000000000000000000000000000000000000000000000000000000000000000000000000000000000000000000000000000000000000000000000000000000000000000000000000000000000000000000000000000000000000000000000000000000000000000000000000000000000000000000000000000000000000000000000000000000000000000000000000000000000000000000000000000000000000000000000000000000000000000000000000000000000000000000000000000000000000000000000000000000000000000000000000000000000000000000000000000000000000000000000000000000000000000000000000000000000000000000000000000000000000000000000000000000000000000000745400000000000000000000000000000000000000000000000000000000000000000000000000000000000000000000000000000000000000000000000000000000000000000000000000000000000000
#02512:13131713
#02516:2800001300000000
#02518:0000000000000013
#0251b:0013000000001300
#0251a:0013
#02515:0000000000000013
#0261a:1414
#02618:0014000000000000
#02616:00140000
#02614:0000001400000000
#02612:0000000014000014
#0261b:0000000000000013
#02312:28131313
#02317:0000001300130000
#0231b:13000013
#02318:0000000000000012
#02316:0013000013000000
#02412:1400000014140000
#02414:0014000000000000
#02416:00000000000000000000000000000000000000000000000000000000000000000000000000000000000000000000000000000000000000000000000000000000000000000000000000000000000000000000000000000000000000000000000000000000000000000000000000000000000000000000000000000000000000000000000000000000000000000000000000000000000000000000000000000000140000000000000000000000000000000000000000000000000000000000000000000000000000000000000000000000000000000000000000000000000000000000000000000000000000000000000000000000000000000000000000000000000000000000000000000000000000000000000000000000000000000000000000000000000000000000000000000000000000000000000000000000000000000000000000000000000000000000000000000000000000000000000000000000000000000000000000000000000000000000000000000000000000000000000000000000000000000000000000000000000000000000000000000000000000000000000000000000000000000000000000000000000000000000000000000000000000000000000000000000000000000000000000000000000000000000000000000000000000000000000000000000000000000000000000000000000000000000000000000000000000000000000000000000000000000000000000000000000000000000000000000000000000745400000000000000000000000000000000000000000000000000000000000000000000000000000000000000000000000000000000000000000000000000000000000000000000000000000000000000
#02418:0000001400000000
#0241b:13
#0241a:0000000014140000
#0271b:1300000013001313
#02712:1400131300000000
#02717:0000000000000013
#0281b:1300131300000000
#02817:1300131300000000
#02912:1c7c00000000000000000000000000000000000000000000000000000000000000000000000000000000000000000000000000000000000000000000000000000000000000000000000000000000000000000000000000000000000000000000000000000000000000000000000000000000000000000000000000000000000000000000000000000000000000000000000000000000000000000000000000000000000000000000000000000000000000000000000000000000000000000000000000000000000000000000000000000000000000000000000000000000000000000000000000000000000000000000000000000000000000000000000000000000000000000000000000000000000000000000000000000000000000000000000000000000000000000000000000000000000000000000000000000000000000000000000000000000000000000000000000000000000000000000000000000000000000000000000000000000000000000000000000000000000000000000
#02910:41
#0351b:13
#03517:0000001300000013
#03512:2300000000140000
#03515:00001313
#03612:1400001400000014
#03617:0000000000130000
#03615:00001313
#0361c:22
#03717:13001313
#03712:0000001400000014
#03715:0000000000130000
#0371c:22
#04318:00130000
#0431b:00001313
#0431a:2400001200000000
#04319:0000000000000012
#04312:2300001400140014
#04316:00001414
#04418:00130000
#0441b:2313
#04419:00000013
#0441a:0000001200000000
#0441c:0000000000000012
#04416:2400001400140014
#04412:00001414
#04615:0000000000000012
#04616:0014
#04612:0000005c
#0501a:00121414
#05018:0000001200000000
#05016:1400000012120000
#05012:0014140000000000
#0501c:0012000000000000
#04912:2412120000121200
#04917:12
#04916:0000141214121412
#0491c:0000001200000012
#05218:00121200
#05216:0000001200000000
#05212:00141414
#0521b:0000000000130000
#0521a:1414000000000000
#0511c:0012120000121200
#05117:12
#05116:00140014
#05112:0000001200000012
#05118:0000000000120000
#0511a:2414
#05418:0000120000120000
#05412:0000141400001300
#05416:00000000000000000000001200001400
#0541b:00000013
#0541a:14
#0551b:13001313
#05512:29131400
#05519:0012001200000012
#05516:0000130000141200
#05518:00000000000000000000001400000000
#0551f:21
#05616:13000000000000000000000000000000000000000000000000000000000000000000000000000000000000000000000000000000000000000000000000000000000000000000000000000000000000000000000000000000000000000000000000000000000000000000000000000000000000000000000000000000000000000000000000000000000000000000000000000000000000000000000000000000000000000000000000000000000000000000000000000000000000000000000000000000000000000000000000000000000000000000000000000000000000000000000000000000000000000000000000000000000000000000000000000000000000000000000000000000000000000000000000000000000000000000000000000000000000000000000000000000000000000000000000000000000000000000000000000000000000000000000000000000000000000000000000000000000000000000000000000000000000000000000000000000000000000000000000000000000000000000000000000000000000000000000000000000000000000000000000000000000000000000000000000000000000000000000000000000000000000000000000000000000000000000000000000000000000000000000000000000000000000000000000000000000000000000000000000000000000000000000000000000000000000000000000000000000000000000000000000000000000000000000000000000000000745400000000000000000000000000000000000000000000000000000000000000000000000000000000000000000000000000000000000000000000000000000000000000000000000000000000000000
#05612:1400130014140000
#0561b:00130000
#05615:0000001300000000
#05619:0012000000000000
#0561a:0000000014140000
#05610:41
#0591b:13
#05916:0000001418120000
#0591a:00140014
#05915:0000000000000013
#05912:2913000014001400
#05918:00000000000000000000001200001300
#06012:1400000014000013
#06014:0014000000000000
#06016:00140000
#06018:0000001400000000
#0601a:0000000014000014
#0571b:00130013
#05715:2900001200120000
#05712:13000013
#05716:0000000000000012
#05717:0013000013000000
#0571a:0014
#0581a:1400000014140000
#05818:0014000000000000
#05816:00000000000000000000000000000000000000000000000000000000000000000000000000000000000000000000000000000000000000000000000000000000000000000000000000000000000000000000000000000000000000000000000000000000000000000000000000000000000000000000000000000000000000000000000000000000000000000000000000000000000000000000000000000000140000000000000000000000000000000000000000000000000000000000000000000000000000000000000000000000000000000000000000000000000000000000000000000000000000000000000014000000000000000000000000000000000000000000000000000000000000000000000000000000000000000000000000000000000000000000000000000000000000000000000000000000000000000000000000000000000000000000000000000000000000000000000000000000000000000000000000000000000000000000000000000000000000000000000000000000000000000000000000000000000000000000000000000000000000000000000000000000000000000000000000000000000000000000000000000000000000000000000000000000000000000000000000000000000000000000000000000000000000000000000000000000000000000000000000000000000000000000000000000000000000000000000000000000000000000000000000000000000000000000000000000000000000745400000000000000000000000000000000000000000000000000000000000000000000000000000000000000000000000000000000000000000000000000000000000000000000000000000000000000
#05812:1300130014140000
#0581b:0000001300000000
#06112:1300000013001313
#0611b:0000131300000000
#06116:0000000000000013
#0611a:14
#0671c:0012000012000000
#06712:0012001200120012
#0671a:00120052
#06714:12
#06718:0000001200000000
#06514:12000052
#0651c:0012001200120012
#06516:00521200
#06513:0000001200000000
#06517:0000000000000012
#06616:1200001200005200
#0661c:0012001200120000
#06614:00521200
#06617:0000000000000012
#01452:0000000014540000
#0145a:0000000014540000
#0185a:0014
#01852:0014
#0175b:53
#01757:0017
#01752:0023000000000000
#0325a:14
#03252:12
#03356:13
#03352:12
#0335a:0000000000000054
#0435a:14
#0485b:0000000000530000
#05353:0000005200000000
#06358:0052
#0635a:52
#06458:52
#0645a:0052
#06957:5200005200000000
#00656:0000001400000000
#0055a:0000001400000000
#0075a:0000001400000000
#00956:14
#0095a:14
#00952:0000001400000000
#01056:0000001400000000
#01152:0000001400000000
#01552:53
#01557:0023000000000000
#01652:0000000014540000
#0165a:0000000014540000
#01952:53
#0195b:0000005300000000
#02052:5300006300000000
#02056:5300006300000000
#0225a:0000000014540000
#02252:0000000014540000
#02552:6317
#0255b:0023000000000000
#02652:0014
#0265a:0014
#0235b:63
#02356:0023000000000000
#0245a:0000000014540000
#02452:0000000014540000
#0275b:63
#02752:0000006300000000
#02857:6300005300000000
#0285b:6300005300000000
#02952:5c5c00000000000000000000000000000000000000000000000000000000000000000000000000000000000000000000000000000000000000000000000000000000000000000000000000000000000000000000000000000000000000000000000000000000000000000000000000000000000000000000000000000000000000000000000000000000000000000000000000000000000000000000000000000000000000000000000000000000000000000000000000000000000000000000000000000000000000000000000000000000000000000000000000000000000000000000000000000000000000000000000000000000000000000000000000000000000000000000000000000000000000000000000000000000000000000000000000000000000000000000000000000000000000000000000000000000000000000000000000000000000000000000000000000000000000000000000000000000000000000000000000000000000000000000000000000000000000000000
#03152:12
#03452:12
#03552:13
#0355b:13
#03652:14
#0365c:12
#03757:13
#0375c:12
#0385b:13
#03856:15
#04456:14
#04552:5400000000540000
#04558:00000023000000000000000054000000
#0455a:0054
#04554:0000000000000054
#0475c:00520052
#04758:0000002200000022
#05056:0000000000620000
#04952:00620062
#04956:0000002200000022
#0525b:0000000000530000
#0515c:00520052
#05152:0000002200000022
#05652:1400000014540000
#0565a:0000000014540000
#0595b:53
#05956:0018
#05952:1923000014000000
#0605a:0014
#06052:1414
#05752:53
#05757:0023000000000000
#05755:19
#0575a:0014
#05852:0000000014540000
#0585a:1400000014540000
#06152:53
#0615b:0000005300000000
#06256:5300006300000000
#06252:5300006300000000
#05552:1914
#0675c:0052
#06554:62
#06556:0062
#06656:62
#06654:0062
#04656:0024
#04056:14
#0415a:14
#04157:0000000000000013
#02152:0013
#0545a:54
#05452:0000005400000000
#014320:0000000000140000
#014360:00000000000000000000000000000000000000000000000000000000000000000000000000000000000000000000000000000000000000000000000000000000000000000000000000000000000000000000000000000000000000000000000000000000000000000000000000000000000000000000000000000000000000000000000000000000000000000000000000000000000000000000000000000000000000000000000000000000000000000000000000000000000000000000000000000000000000000000000000000000000000000000000000000000000000000000000000000000000000000000000000000000000000000000000000000000000000000000000000000000000000000000000000000000000000000000000000000000000000000000000000000000000000000000000000000000000000000000000000000000000000000000000000000000000000000000000000000000000000000000000000000000000000000000000000000000000000000000000000000000000000000000000000000000000000000000000000000000000000000000000000000000000000000000000000000000000000000000000000000000000000000000000000000000000000000000000000000000000000000000000000000000000000000000000000000000000000000000000000000000000000000000000000000000000000000000000000000000000000000000000000000000000000000000000000000000000000240000000000000000000000000000000000000000000000000000000000000000000000000000000000000000000000000000000000000000000000000000000000000000000000000000000000000000
#0143a1:0000000000140000
#014361:0000000000000024
#015321:13230000
#015371:0053000000000000
#016321:0000000000140000
#016361:00000000000000000000000000000000000000000000000000000000000000000000000000000000000000000000000000000000000000000000000000000000000000000000000000000000000000000000000000000000000000000000000000000000000000000000000000000000000000000000000000000000000000000000000000000000000000000000000000000000000000000000000000000000000000000000000000000000000000000000000000000000000000000000000000000000000000000000000000000000000000000000000000000000000000000000000000000000000000000000000000000000000000000000000000000000000000000000000000000000000000000000000000000000000000000000000000000000000000000000000000000000000000000000000000000000000000000000000000000000000000000000000000000000000000000000000000000000000000000000000000000000000000000000000000000000000000000000000000000000000000000000000000000000000000000000000000000000000000000000000000000000000000000000000000000000000000000000000000000000000000000000000000000000000000000000000000000000000000000000000000000000000000000000000000000000000000000000000000000000000000000000000000000000000000000000000000000000000000000000000000000000000000000000000000000000000000240000000000000000000000000000000000000000000000000000000000000000000000000000000000000000000000000000000000000000000000000000000000000000000000000000000000000000
#0163a0:0000000000140000
#016360:0000000000000024
#0173b0:13
#017360:0023000000000000
#017321:0013000000000000
#017371:00230000
#019321:13
#019371:00230000
#0193b1:0000001300000000
#019361:00000023
#022321:0000000000140000
#022361:00000000000000000000000000000000000000000000000000000000000000000000000000000000000000000000000000000000000000000000000000000000000000000000000000000000000000000000000000000000000000000000000000000000000000000000000000000000000000000000000000000000000000000000000000000000000000000000000000000000000000000000000000000000000000000000000000000000000000000000000000000000000000000000000000000000000000000000000000000000000000000000000000000000000000000000000000000000000000000000000000000000000000000000000000000000000000000000000000000000000000000000000000000000000000000000000000000000000000000000000000000000000000000000000000000000000000000000000000000000000000000000000000000000000000000000000000000000000000000000000000000000000000000000000000000000000000000000000000000000000000000000000000000000000000000000000000000000000000000000000000000000000000000000000000000000000000000000000000000000000000000000000000000000000000000000000000000000000000000000000000000000000000000000000000000000000000000000000000000000000000000000000000000000000000000000000000000000000000000000000000000000000000000000000000000000000000240000000000000000000000000000000000000000000000000000000000000000000000000000000000000000000000000000000000000000000000000000000000000000000000000000000000000000
#0223a0:0000000000140000
#022360:0000000000000024
#0233b0:13230000
#023360:0053000000000000
#024320:0000000000140000
#024360:00000000000000000000000000000000000000000000000000000000000000000000000000000000000000000000000000000000000000000000000000000000000000000000000000000000000000000000000000000000000000000000000000000000000000000000000000000000000000000000000000000000000000000000000000000000000000000000000000000000000000000000000000000000000000000000000000000000000000000000000000000000000000000000000000000000000000000000000000000000000000000000000000000000000000000000000000000000000000000000000000000000000000000000000000000000000000000000000000000000000000000000000000000000000000000000000000000000000000000000000000000000000000000000000000000000000000000000000000000000000000000000000000000000000000000000000000000000000000000000000000000000000000000000000000000000000000000000000000000000000000000000000000000000000000000000000000000000000000000000000000000000000000000000000000000000000000000000000000000000000000000000000000000000000000000000000000000000000000000000000000000000000000000000000000000000000000000000000000000000000000000000000000000000000000000000000000000000000000000000000000000000000000000000000000000000000000240000000000000000000000000000000000000000000000000000000000000000000000000000000000000000000000000000000000000000000000000000000000000000000000000000000000000000
#0243a1:0000000000140000
#024361:0000000000000024
#025321:13
#025371:0023000000000000
#0253b0:0013000000000000
#025360:00230000
#0273b0:13
#027360:00230000
#027320:0000001300000000
#027370:00000023
#029320:1c00000000000000000000000000000053000000000000005353535353535353
#029330:00000000000000000000000000000000000000000000000000000000000000000000000000000000000000000000000000530053005300530053005300530053
#030320:23
#029321:001c00000000000000000000000000000000000000000000000000000000000000000000000000000000000000000000000000000000000000000000000000000000000000000000000000000000000000000000000000000000000000000000000000000000000000000000000000000000000000000000000000000000000000000000000000000000000000000000000000000000000000000000000000000000000000000000000000000000000000000000000000000000000000000000000000000000000000000000000000000000000000000000000000000000000000000000000000000000000000000000000000000000000000000000000000000000000000000000000000000000000000000000000000000000000000000000000000000000000000000000000000000000000000000000000000000000000000000000000000000000000000000000000000000000000000000000000000000000000000000000000000000000000000000000000000000000000000000000
#0293b1:0000000000000000000000000000000053000000000000005353535353535353
#0293a1:00000000000000000000000000000000000000000000000000000000000000000000000000000000000000000000000000530053005300530053005300530053
#0303b1:23
#031321:00123232
#031331:0000003200320032
#032321:22
#032321:00123232
#032331:0000003200320032
#033321:22
#033321:00123232
#033341:0000003200320032
#034321:22
#034321:00133333
#034341:0000003300330033
#035321:23
#0353c1:00123232
#0353b1:0000003200320032
#0363c1:22
#0363c1:00123232
#0363a1:0000003200320032
#0373c1:22
#0373b1:00133333
#037391:0000003300330033
#0383b1:23
#045321:14
#045351:00000023000000000000000000000000
#045380:00000013000000000000000000000000
#0453a0:0000002400000000
#046360:1400005434000000
#046320:0057005700570057005700570057005700570057005700570000000000000000000000000000000000000000000000002c000000000000000000000000000000
#046370:0057575757575757575757570000000000000000000000000000000000000000
#0473c0:00122200
#047380:0000003200000000
#0473c0:00000012
#047380:0000000000000032
#0483c0:22
#0483b0:0000000000130000
#048360:0000000000000024
#049320:00122200
#049360:0000003200000000
#049320:00000012
#049360:0000000000000032
#050320:22
#050360:0000000000120000
#050320:0000000000000023
#0513c0:00120000
#051380:0000002200000000
#051321:0000001200000000
#051361:0022
#0513c1:00000012
#051381:0000000000000022
#051320:0000000000000012
#052360:22
#0523b0:0000000000130000
#052360:0000000000000024
#053330:0000001200000000
#053360:0000000000220000
#056320:0000000000140000
#056360:00000000000000000000000000000000000000000000000000000000000000000000000000000000000000000000000000000000000000000000000000000000000000000000000000000000000000000000000000000000000000000000000000000000000000000000000000000000000000000000000000000000000000000000000000000000000000000000000000000000000000000000000000000000000000000000000000000000000000000000000000000000000000000000000000000000000000000000000000000000000000000000000000000000000000000000000000000000000000000000000000000000000000000000000000000000000000000000000000000000000000000000000000000000000000000000000000000000000000000000000000000000000000000000000000000000000000000000000000000000000000000000000000000000000000000000000000000000000000000000000000000000000000000000000000000000000000000000000000000000000000000000000000000000000000000000000000000000000000000000000000000000000000000000000000000000000000000000000000000000000000000000000000000000000000000000000000000000000000000000000000000000000000000000000000000000000000000000000000000000000000000000000000000000000000000000000000000000000000000000000000000000000000000000000000000000000000240000000000000000000000000000000000000000000000000000000000000000000000000000000000000000000000000000000000000000000000000000000000000000000000000000000000000000
#0563a1:0000000000140000
#056361:0000000000000024
#057321:13230000
#057371:0053000000000000
#058321:0000000000140000
#058361:00000000000000000000000000000000000000000000000000000000000000000000000000000000000000000000000000000000000000000000000000000000000000000000000000000000000000000000000000000000000000000000000000000000000000000000000000000000000000000000000000000000000000000000000000000000000000000000000000000000000000000000000000000000000000000000000000000000000000000000000000000000000000000000000000000000000000000000000000000000000000000000000000000000000000000000000000000000000000000000000000000000000000000000000000000000000000000000000000000000000000000000000000000000000000000000000000000000000000000000000000000000000000000000000000000000000000000000000000000000000000000000000000000000000000000000000000000000000000000000000000000000000000000000000000000000000000000000000000000000000000000000000000000000000000000000000000000000000000000000000000000000000000000000000000000000000000000000000000000000000000000000000000000000000000000000000000000000000000000000000000000000000000000000000000000000000000000000000000000000000000000000000000000000000000000000000000000000000000000000000000000000000000000000000000000000000000240000000000000000000000000000000000000000000000000000000000000000000000000000000000000000000000000000000000000000000000000000000000000000000000000000000000000000
#0583a0:0000000000140000
#058360:0000000000000024
#0593b0:13
#059360:0023000000000000
#059321:0013000000000000
#059371:00230000
#061321:13
#061371:00230000
#0613b1:0000001300000000
#061361:00000023
#0029a0:14240000000000000000000000000000
#0029a0:00000000000014240000000000000000
#003920:14240000000000000000000000000000
#003920:00000000000014240000000000000000
#0049a0:14240000000000000000000000000000
#0049a0:00000000000014240000000000000000
#012950:12220000000000000000000000000000
#012991:12220000000000000000000000000000
#020961:13
#0209b1:0023000000000000
#020920:13
#020970:0023000000000000
#020960:0000001300000000
#0209b0:0023
#020921:0000001300000000
#020971:0023
#028971:13
#028921:0023000000000000
#0289b0:13
#028960:0023000000000000
#028970:0000001300000000
#028920:0023
#0289b1:0000001300000000
#028961:0023
#0339a1:0000000000000014
#034961:0023000000000000
#0459a1:0014
#045981:00000000000000000024000000000000
#045921:0000000000140000
#045941:00000000000000000000002400000000
#045981:00000014
#0459a1:00000000000000000000000000240000
#045941:0000000000000014
#045921:00000000000000000000000000000024
#0549a1:14
#054961:0024000000000000
#054921:0000001400000000
#054961:0024
#062961:13
#0629b1:0023000000000000
#062920:13
#062970:0023000000000000
#062960:0000001300000000
#0629b0:0023
#062921:0000001300000000
#062971:0023
#0639a1:12
#063981:00220000
#063981:0012
#0639a1:00000022
#064981:12
#0649a1:00220000
#0649a1:0012
#064981:00000022
#065941:12
#065961:00220000
#065961:0012
#065941:00000022
#066961:12
#066941:00220000
#066941:0012
#066961:00000022
#0679c1:0012
#0679a1:00000022
#068981:00001222
#069971:12
#069991:00220000
#069971:0000001200000000
#069951:0000000000220000
#070981:1121000000000000
#070971:0000001121000000
