This file was generated by Ched 2.7.0.0.
#TITLE ""
#ARTIST ""
#DESIGNER ""
#DIFFICULTY 0
#PLAYLEVEL
#SONGID ""
#WAVE ""
#WAVEOFFSET 0
#JACKET ""
#REQUEST "ticks_per_beat 480"
#00002: 4
#BPM01: 148
#00008: 01
#TIL00: ""
#VOLUME: ""
#HISPEED 00
#MEASUREHS 00
#0501f:11
#05018:0012
#05016:1252
#01918:00000013000000000000000013000000
#0191b:1300001300000000
#01915:00000013000000000000130000001300
#01912:13
#01815:00000013000000000000000013000000
#01812:1300001300000000
#01818:00000013000000000000130000001300
#0181b:13
#01618:1300001300000013
#0161b:00000013000000000000000000000000
#01612:00000013000000000000130000000000
#01615:13000013
#01715:1300001300000013
#01718:13000013
#01712:00000013000000000000000000000000
#0171b:00000013000000000000130000000000
#0531a:0012
#05314:1252
#0531c:52
#0521c:0012
#05212:1252
#0521a:52
#0511a:0012
#05114:1252
#05118:52
#0461a:0013000000130000
#04618:0000001300000000
#04619:00131300
#0461b:00000013
#00319:00130000
#0031b:1313
#00312:1313
#00314:00130000
#0021b:1313
#00212:1313
#00218:00000013
#00215:00130000
#00118:00130013
#00115:0013
#0011b:13
#00112:13
#0001b:13
#00015:00130013
#00018:0013
#00012:13
#00418:0000131300000013
#00415:0000000000130000
#00412:23130000
#0041b:23
#04112:1415
#04116:0014000000000000
#04119:00151500
#04115:0000001500000000
#07316:0014000000000000
#07313:00000015
#07318:0000000000142516
#07315:0013
#0731b:13
#07314:0000000000240000
#07312:2400000000000026
#0731a:00240000
#07216:0014000000000000
#07212:24132413
#07215:0000001300130000
#0721b:1313
#07218:0000001300000013
#0721a:00240024
#06715:00000013
#06718:0000000000130013
#0671b:0000001300000000
#06716:0000131300000000
#06712:13
#06717:13
#06918:00000013
#06915:0000000000130013
#06912:0000001300000000
#06917:0000131300000000
#0691b:13
#06916:13
#07115:00000013
#07112:0013000000130000
#0711b:1313
#07119:0000131300000000
#07118:0000000000000013
#07114:0000001300000000
#07116:13
#07016:0000000013000013
#07012:2300131300000000
#07017:0000131300001300
#0701b:2300000000130000
#06816:0000131300000013
#06812:2313
#06817:00000013
#0681b:2300131300130000
#06617:0000131300000013
#0661b:0013
#06616:00000013
#06612:0000131300130000
#06512:25002616
#06516:0015000000160000
#06515:0000001500000000
#06519:25250000
#06518:00000026
#06112:15150016
#06115:0015000000000000
#06119:15
#06114:0000000000160000
#06118:0016
#06116:0000001500000000
#06016:0014001400140014
#06012:24241400
#0601a:14002424
#06416:0014001400140014
#0641a:24241400
#06412:14002424
#0631b:1300001313000000
#06317:0000000000000013
#06318:00130000
#06315:0013000000000000
#06312:24242424
#06216:0000000000000013
#06212:2300001313000000
#06215:00130000
#06218:0013000000000000
#0621a:24242424
#04016:0000140014000014
#0401a:0000001400001400
#04017:13
#05912:1300001313000000
#05916:0000000000000013
#05915:00130000
#05918:0013000000000000
#0591a:24242424
#05910:41
#05817:0000000000000013
#0581b:2300001313000000
#05818:00130000
#05815:0013000000000000
#0581f:21
#05812:24242424
#0571c:12
#05712:12
#05716:0052
#05718:0052
#04518:00000000001300130000130000000000
#04515:0000131313000000
#04512:00000013
#04714:0013001300000000
#04716:00130000
#0471b:0000000000130000
#04715:00000000000000000000000000130013
#04718:0000000000001313
#05612:00000012
#0561c:00120000
#05514:00000012
#0551a:00120000
#05414:00000012
#0541a:52120000
#0491a:000000000000000000240014
#04915:000000130000000000130000000000000000000014000000
#04912:000000130000240014000000
#04917:000000000000001400000000
#04817:0000000000000013
#04819:00000013
#0481b:0000000000130000
#04812:0013000000000000
#04816:0000001300000000
#04814:00130000
#01112:00000000000000000013001300000000
#0111b:0000000013132300
#01118:00130013001300000000000000000000
#01115:1313130000000000
#01012:2300001300130000
#01018:0013000000000000
#0101b:2300001300000013
#01015:00130000
#00912:1300000000000013
#00915:0000001300000000
#00918:1300000000130000
#0091b:0000131300000000
#00712:0000001300000013
#0071b:1300000000130000
#00718:0000131300000000
#00715:13
#00812:2300131300000013
#0081b:2300000000130000
#00818:00130000
#0051b:0000001300000013
#00512:1300000000130000
#00515:0000131300000000
#00518:13
#00615:0000131300000013
#00618:0000000000130000
#0061b:23130000
#00612:23
#03112:0000001300000000
#03118:00000013000000000000000013000000
#03115:1300000000000013
#0311b:1300000000130000
#0301b:0000001300000000
#03015:00000013000000000000000013000000
#03018:1300000000000013
#03012:1300000000130000
#02615:00000013000000000000000000001300
#02618:00000013
#0261b:1300001300000000
#02612:1300000000130000
#02718:00000013000000000000000000001300
#02715:00000013
#02712:1300001300000000
#0271b:1300000000130000
#0291b:13000013000000000000130000000000
#02915:1300001300000013
#02918:00000013
#02818:1300001300000013
#02812:23000013000000000000130000000000
#02815:00000013
#02810:41
#02515:0000001300001300
#02518:0000000000130013
#0251b:13000013000000000000000000000000
#02512:13
#02418:0000001300001300
#02415:0000000000130013
#02412:23000013000000000000000000000000
#0241b:13
#0231b:1313
#02312:1300131300000013
#02315:00000013
#02318:0000000000130000
#02212:1313
#02215:0000000000130000
#0221b:2300131300000013
#02218:00000013
#02117:13
#02114:0000131300000013
#02116:0000000000130000
#02112:13
#0201b:13
#02012:2300000000000013
#02013:0000000000130000
#02014:0000131300000000
#02010:41
#0151b:1300001300000000
#01515:00000013000000000000130000001300
#01518:00000013
#01512:13
#01412:1300001300000000
#01418:00000013000000000000130000001300
#01415:00000013
#0141b:13
#0131b:13
#01318:0000001300000013
#01312:1300000000130000
#01315:00000013000000000000000013000000
#01212:13
#01215:0000001300000013
#01218:00000013000000000000000013000000
#0121b:1300000000130000
#01210:41
#03812:2313
#03816:0000000000000013
#0381b:2313000000001300
#03818:0000001300000000
#03815:00130000
#03916:0000000000130000
#03912:0000000013000013
#03917:00000013
#0391b:0013
#03918:0013001300000000
#03915:00130000
#0341b:2313
#03417:0000000000000013
#03412:2313000000001300
#03415:0000001300000000
#03418:00130000
#03616:1300140014000014
#03612:0000001400001400
#03610:41
#03517:0000000000130000
#0351b:0000000013000013
#03516:00000013
#03512:0013
#03515:0013001300000000
#03518:00130000
#03716:0014001500000000
#0371a:14
#03715:0000000000150000
#03719:0015
#03712:00150015
#03312:00131300
#0331b:1313
#03317:00130000
#03216:00000013
#03212:23131300
#03217:00130000
#0321b:13000013
#04212:23
#04410:41
#01952:5300001300000000
#0195b:0000006300000000
#01955:00000063000000000000000000000000
#01655:6300001300000000
#01658:0000005300000000
#01652:00000053000000000000000000000000
#00358:00000013
#00355:00000013
#0035b:0063
#00352:0053
#0665b:1323
#06652:1300000000530000
#06657:0000005300000000
#06656:00000023
#06559:45654500
#06552:55355666
#06558:00000056
#06556:0025000000260000
#06555:0000002500000000
#06158:00006646
#06152:35553536
#06159:65450000
#06155:0025000000000000
#06154:0000000000260000
#06156:0000002500000000
#0315b:0000001300000000
#03152:0000005300000000
#03158:00000053000000000000000000000000
#03155:63
#03052:0000001300000000
#0305b:0000006300000000
#03055:00000063000000000000000000000000
#03058:53
#02958:0000001300000000
#0295b:00000063000000000000000000000000
#02955:6300006300000000
#02855:0000001300000000
#02858:5300005300000000
#02852:00000053000000000000000000000000
#0275b:0000001300000000
#02752:5300005300000000
#02758:00000053000000000000000000000000
#02652:0000001300000000
#0265b:6300006300000000
#02655:00000063000000000000000000000000
#02558:0000001300000000
#02555:0000006300000000
#0255b:00000063000000000000000000000000
#02552:53
#02455:0000001300000000
#02458:0000005300000000
#02452:00000053000000000000000000000000
#0245b:63
#0185b:6300001300000000
#01852:0000005300000000
#01858:00000053000000000000000000000000
#01552:5300001300000000
#0155b:0000006300000000
#01555:00000063000000000000000000000000
#01352:5300001300000000
#01358:0000005300000000
#01355:00000063000000000000000000000000
#01758:5300001300000000
#01755:0000006300000000
#0175b:00000063000000000000000000000000
#04152:54006513
#0415b:00000013
#04156:0024000000000000
#04159:00655500
#04155:0000002500000000
#03759:00006545
#03756:0024002500000000
#0375a:64
#03755:0000000000250000
#03752:00550035
#03355:00000013
#03358:00000013
#03352:0053
#0335b:6363
#03357:00230000
#0145b:6300001300000000
#01452:0000005300000000
#01458:00000053000000000000000000000000
#0125b:6300001300000000
#01255:0000006300000000
#01258:00000053000000000000000000000000
#0085b:1300000000630000
#00852:1300005300000000
#07052:1300005300000000
#0705b:1300000000630000
#07056:0023
#07057:00000023
#0685b:1300000000630000
#06852:1323
#06856:0000006300000000
#06857:00000023
#06252:1353
#0585b:1363
#04252:13
#0115b:00000013
#0045b:13
#00452:13
#00458:0000005300000000
#00455:0000000000630000
#0225b:13
#02252:53
#02052:13
#0205b:63
#07252:00000023
#07255:0000000000630000
#0725b:0023
#07258:0000005300000000
#0715b:0023
#07159:0000005300000000
#07152:0023000000000000
#07156:63
#06957:0000005300000000
#06956:63
#06756:0000006300000000
#06757:53
#06056:0024000000240000
#06052:0054
#0605a:64
#06456:0024000000240000
#0645a:0064
#06452:54
#0635b:0063
#04056:0000000064000024
#0405a:00000064
#04057:53
#05952:0053
#0575c:62
#05752:52
#01052:0000000000530000
#0105b:0000006300000000
#00955:0000006300000000
#00958:0000000000530000
#00952:53
#00752:0000005300000000
#0075b:0000000000630000
#00755:63
#00658:0000000000530000
#00655:0000006300000000
#0055b:0000006300000000
#00552:0000000000530000
#00558:53
#0235b:63
#02157:53
#03852:0053
#03856:0000000000000063
#03956:0000000000230000
#03952:0053
#0395b:0013
#0345b:0063
#03457:0000000000000053
#03656:6300000054000024
#03652:00000054
#03557:0000000000230000
#0355b:0063
#03552:0013
#03256:00000023
#03252:0053
#03257:00230000
#0325b:63
#0033b0:0013
#003380:00000023
#003321:0013
#003351:00000023
#004381:0000001300000000
#0043b1:0000000000230000
#004350:0000000000130000
#004320:0000000000000023
#005380:1300000000230000
#0053b0:0000333300000000
#005321:0000000000130000
#005351:0000000000000023
#006351:0000001300000000
#006321:0000000000230000
#006380:0000000000130000
#0063b0:0000000000000023
#007350:1300000000230000
#007320:0000333300000000
#0073b1:0000000000130000
#007381:0000000000000023
#008321:0000001300000000
#008351:0000000000230000
#0083b0:0000000000130000
#008380:0000000000000023
#009320:1300000000230000
#009350:0000333300000000
#009381:0000000000130000
#0093b1:0000000000000023
#0103b1:0000001300000000
#010381:0000000000230000
#010320:0000000000130000
#010350:0000000000000023
#011350:0000001300000000
#011320:0023
#0123b0:1300002300000000
#012380:00000033000000000000000000000000
#012351:0000001300000000
#012321:0000000000230000
#013321:1300002300000000
#013351:00000033000000000000000000000000
#013380:0000001300000000
#0133b0:0000000000230000
#0143b0:1300002300000000
#014380:00000033000000000000000000000000
#014321:0000001300000000
#014351:0000000000230000
#015321:1300002300000000
#015351:00000033000000000000000000000000
#0153b0:0000001300000000
#015380:0000000000230000
#016350:1300002300000000
#016320:00000033000000000000000000000000
#016381:0000001300000000
#0163b1:0000000000230000
#017381:1300002300000000
#0173b1:00000033000000000000000000000000
#017350:0000001300000000
#017320:0000000000230000
#0183b0:1300002300000000
#018380:00000033000000000000000000000000
#018321:0000001300000000
#018351:0000000000230000
#019321:1300002300000000
#019351:00000033000000000000000000000000
#0193b0:0000001300000000
#019380:0000000000230000
#0203b0:13
#021370:33
#0223b0:23
#022321:13
#022361:00230000
#0233b1:13
#023371:00230000
#0243b1:13
#024381:00000023000000000000000000000000
#024320:00000013000000000000000000000000
#024350:0000002300000000
#024381:0000001300000000
#0243b1:0000000000230000
#025321:13
#025351:00000023000000000000000000000000
#0253b0:00000013000000000000000000000000
#025380:0000002300000000
#025351:0000001300000000
#025321:0000000000230000
#0263b1:13
#026381:00000023000000000000000000000000
#026350:00000013000000000000000000000000
#026320:0000002300000000
#0263b1:0000001300000000
#026381:0000000000230000
#027321:13
#027351:00000023000000000000000000000000
#027380:00000013000000000000000000000000
#0273b0:0000002300000000
#027321:0000001300000000
#027351:0000000000230000
#028381:13
#0283b1:00000023000000000000000000000000
#028320:00000013000000000000000000000000
#028350:0000002300000000
#028381:0000001300000000
#0283b1:0000000000230000
#029351:13
#029321:00000023000000000000000000000000
#0293b0:00000013000000000000000000000000
#029380:0000002300000000
#029351:0000001300000000
#029321:0000000000230000
#030381:13
#0303b1:00000023000000000000000000000000
#030350:00000013000000000000000000000000
#030320:0000002300000000
#0303b1:0000001300000000
#030381:0000000000230000
#031351:13
#031321:00000023000000000000000000000000
#031380:00000013000000000000000000000000
#0313b0:0000002300000000
#031321:0000001300000000
#031351:0000000000230000
#0323b1:1323
#032371:00530000
#032320:0013
#032360:00000053
#033320:23
#0333b1:1333
#033371:00530000
#033381:00000023
#033320:0013
#033350:00000023
#0343b0:0013
#034370:00000023
#034370:0000000000000013
#0353b0:0023000000000000
#0353b0:00001323
#035370:0000000000530000
#036360:13
#036320:00230000
#036360:0014
#0363a0:00000024
#036321:00000014
#036361:0000000000000054
#037321:24
#0373a0:14240000
#037360:0054000000000000
#037321:00152500
#037361:0000005500000000
#037390:00001525
#037350:0000000000550000
#038320:0013
#038360:00000023
#038360:0000000000000013
#039320:0023000000000000
#039320:00001323
#039360:0000000000530000
#040370:13
#0403b0:00230000
#040360:0014
#040320:00000024
#0403a1:00000014
#040361:0000000000000054
#0413a1:24
#041320:14240000
#041360:0054000000000000
#041391:00153500
#041351:0000005500000000
#0413b1:00000023
#041320:00001523
#0423b0:13
#042370:00230000
#042321:00130000
#042361:0023
#0423b0:00001323
#042380:0000000000330000
#042351:00000013
#042321:0000000000000033
#043351:23
#0433b0:1323000000000000
#043351:0013230000000000
#043380:0000132300000000
#043321:0000001300230000
#043380:0000000000132300
#043351:0000000000001323
#0433b0:0000000000000013
#0443b0:23
#044321:13
#044361:00230000
#0443b0:00130000
#044370:0023
#044321:00001323
#044351:0000000000330000
#044380:00000013
#0443b0:0000000000000033
#045380:23
#045321:1323000000000000
#045380:0013230000000000
#0453b0:0000000000000000000000000000000000000000000000001353535353535353
#0453a0:00000000000000000000000000000000000000000000000000000000000000000000000000000000000000000000000000530053005300530053005300530053
#0463b0:23
#046321:1353535353535353535353535353535353535353535353535353535353535353
#046331:00530053005300530053005300530053005300530053005300530053005300530053005300530053005300530053005300530053005300530053005300530053
#047321:23
#0473b0:1353535353535353535353535353535323000000000000000000000000000000
#0473a0:00530053005300530053005300530053005300530053005300530053005300530000000000000000000000000000000000000000000000000000000000000000
#047321:0000000000000000000000000000000013535353535353532300000000000000
#047331:00000000000000000000000000000000000000000000000000000000000000000053005300530053005300530053005300000000000000000000000000000000
#0483a1:1454545454545454545454545454545424000000000000000000000000000000
#048391:00540054005400540054005400540054005400540054005400540054005400540000000000000000000000000000000000000000000000000000000000000000
#048320:0000000000000000000000000000000015555555555555555555555555555555
#048330:00000000000000000000000000000000000000000000000000000000000000000055005500550055005500550055005500550055005500550055005500550055
#049320:25
#049381:1656565656565656565656565656565626000000000000000000000000000000
#049371:00560056005600560056005600560056005600560056005600560056005600560000000000000000000000000000000000000000000000000000000000000000
#054361:1222
#054380:0012
#055380:22
#055341:1222
#0553a0:0012
#0563a0:22
#056321:1222
#0563c0:0012
#0573c0:32
#057380:0022
#057321:12
#057361:0022
#0583b1:0013
#058371:00000023
#059321:0013
#059361:00000023
#0603a1:14240000
#060361:0054000000000000
#060321:00001424
#060361:0000000000540000
#061391:15250000
#061351:0055000000000000
#061320:00152500
#061360:0000005500000000
#061381:00001626
#061341:0000000000560000
#062321:0013
#062361:00000023
#0633b1:0013
#063371:00000023
#064321:14240000
#064361:0054000000000000
#0643a1:00001424
#064361:0000000000540000
#065321:15250000
#065361:0055000000000000
#065390:00152500
#065350:0000005500000000
#065321:00001636
#065361:0000000000560000
#066321:23
#065380:00000016
#0663b0:23
#066370:0000001300230000
#0663b0:0053
#066321:0000000000130023
#066361:00000053
#067371:13
#0673b1:00230000
#067361:0000001300000000
#067321:0000000000230000
#068361:0000001300230000
#068321:0053
#0683b0:0000000000130023
#068370:00000053
#069360:13
#069320:00230000
#069370:0000001300000000
#0693b0:0000000000230000
#070320:0000001300230000
#070360:0053
#0703b1:0000000000130023
#070371:00000053
#071361:13
#071321:0053000000000000
#071341:00230000
#071391:0000001300000000
#0713b1:0053
#071371:0000000000230000
#072381:0000001300230000
#0723b1:0053
#072350:0000000000130023
#072320:00000053
#073320:00130000
#073350:0000002300000000
#0733b1:0000001300000000
#073381:0023
#050960:120000000000000000000000000000000000000000000000000000000000000000000000000000000000000000000000000000000000000000000000000000000000000000000000000000000000000000000000000000000000000000000000000000000000000000000000000000000000000000000000000000000000000000000000000000000000000000000000000000000000000000000000000000000000000000000000000000000000000000000000000000000000000000000000000000000000000000000000000000000000000000000000000000000000000000000000000000000000000000000000000000000000000000000000000000000000000000000000000000000000000000000000000000000000000000000000000000000000000000000000000000000000000000000000000000000000000000000000000000000000000000000000000000000000000000000000000000000000000000000000000000000000000000000000000000000000000000000000000000000000000000000000000000000000000000000000000000000000000000000000000000000000000000000000000000000000000000000000000000000000000000000000000000000000000000000000000000000000000000000000000000000000000000000000000000000000000000000000000000000000000000000000000000000000000000000000000000000000000000000000000000000000000000000000000000000000000000000000000000000000000000000000000000000000000000000000000000000000000000000000000000000000000000000000000000000000000000000000000000000000000000000000000000000000000000000000000000000000000000000000000000000000000000000000000000000000000000000000000000000000000000000000000000000000000000000000000000000000000000000000000000000000000000000000000000000000000000000000000000000000000000000000000000000000000000000000000000000000000000000000000000000000000000000000000000000000000000000000000000000000000000000000000000000000000000000000000000000000000000000000000000000000000000000000000000000000000000000000000000000000000000000000000000000000000000000000000000000000000000000000000000000000000000000000000000000000000000000000000000000000000000000000000000000000000000000000000000000000000000000052220000000000000000000000000000000000000000000000000000000000000000000000000000000000000000000000000000000000000000000000000000000000000000000000000000000000000000000000000000000000000000000000000000000000000000000000000000000000000000000000000000000000000000000000000000000000000000000000000000000000000000000000000000000000000000000000000000000000000000000000000000000000000000000000000000000000000000000000000000000000000000000000000000000000000000000000000000000000000000000000000000000000000000000000000000000000000000000000000000000000000000000000000000000000000000000000000000000000000000000000000000000000000000000000000000000000000000000000000000000000000000000000000000000000000000000000000000000000000000000000000000000000000000000000000000000000000000000000000000000000000000000000000000000000000000000000000000000000000000000000000000000000000000000000000000000000000000000000000000000000000000000000000000000000000000000000000000000000000000000000000000000000000000000000000000000000000000000000000000000000000000000000000000000000000000000000000000000000000000000000000000000000000000000000000000000000000000000000000000000000000000000000000000000000000000000000000000000000000000000000000000000000000000000000000000000000000000000000000000000000000000000000000000000000000000000000000000000000000000000000000000000000000000000000000000000000000000000000000000000000000000000000000000000000000000000000000000000000000000000000000000000000000000000000000000000000000000000000000000000000000000000000000000000000000000000000000000000000000000000000000000000000000000000000000000000000000000000000000000000000000000000000000000000000000000000000000000000000000000000000000000000000000000000000000000000000000000000000000000000000000000000000000000000000000000000000000000000000000000000000000000000000000000000000000000000000000000000000000000000000000000000000000000000000000000000000000000000000000000000000
#050981:000000000000000000000000000000000000000000000000000000000000000000000000000000000000000000000000000000000000000000000000000000000000000000000000000000000000000000000000000000000000000000000000000000000000000000000000000000000000000000000000000000000000000000000000000000000000000000000000000000000000000000000000000000000000000000000000000000000000000000000000000000000000000000000000000000000000000000000000000000000000000000000000000000000000000000000000000000000000000000000000000000000000000000000000000000000000000000000000000000000000000000000000000000000000000000000000000000000000000000000000000000000000000000000000000000000000000000000000000000000000000000000000000000000000000000000000000000000000000000000000000000000000000000000000000000000000000000000000000000000000000000000000000000000000000000000000000000000000000000000000000000000000000000000000000000000000000000000000000000000000000000000000000000000000000000000000000000000000000000000000000000000000000000000000000000000000000000000000000000000000000000000000000000000000000000000000000000000000000000000000000000000000000000000000000000000000000000000000000000000000000000000000000000000000000000000000000000000000000000000000000000000000000000000000000000000000000000000000000000000000000000000000000000000000000000000000000000000000000000000000000000000000000000000000000000000000000000000000000000000000000000000000000000000000000000000000000000000000000000000000000000000000000000000000000000000000000000000000000000000000000000000000000000000000000000000000000000000000000000000000000000000000000000000000000000000000000000000000000000000000000000000000000000000000000000000000000000000000000000000000000000000000000000000000000000000000000000000000000000000000000000000000000000000000000000000000000000000000000000000000000000000000000000000000000000000000000000000000000000000000000000000000000000000000000000000000000000000000000000000000120000000000000000000000000000000000000000000000000000000000000000000000000000000000000000000000000000000000000000000000000000000000000000000000000000000000000000000000000000000000000000000000000000000000000000000000000000000000000000000000000000000000000000000000000000000000000000000000000000000000000000000000000000000000000000000000000000000000000000000000000000000000000000000000000000000000000000000000000000000000000000000000000000000000000000000000000000000000000000000000000000000000000000000000000000000000000000000000000000000000000000000000000000000000000000000000000000000000000000000000000000000000000000000000000000000000000000000000000000000000000000000000000000000000000000000000000000000000000000000000000000000000000000000000000000000000000000000000000000000000000000000000000000000000000000000000000000000000000000000000000000000000000000000000000000000000000000000000000000000000000000000000000000000000000000000000000000000000000000000000000000000000000000000000000000000000000000000000000000000000000000000000000000000000000000000000000000000000000000000000000000000000000000000000000000000000000000000000000000000000000000000000000000000000000000000000000000000000000000000000000000000000000000000000000000000000000000000000000000000000000000000000000000000000000000000000000000000000000000000000000000000000000000000000000000000000000000000000000000000000000000000000000000000000000000000000000000000000000000000000000000000000000000000000000000000000000000000000000000000000000000000000000000000000000000000000000000000000000000000000000000000000000000000000000000000000000000000000000000000000000000000000000000000000000000000000000000000000000000000000000000000000000000000000000000000000000000000000000000000000000000000000000000000000000000000000000000000000000000000000000000000000000000000000000000000000000000000000000000000000000000000000000000000000000000000000000000000000000000000052
#051981:22
#051940:120000000000000000000000000000000000000000000000000000000000000000000000000000000000000000000000000000000000000000000000000000000000000000000000000000000000000000000000000000000000000000000000000000000000000000000000000000000000000000000000000000000000000000000000000000000000000000000000000000000000000000000000000000000000000000000000000000000000000000000000000000000000000000000000000000000000000000000000000000000000000000000000000000000000000000000000000000000000000000000000000000000000000000000000000000000000000000000000000000000000000000000000000000000000000000000000000000000000000000000000000000000000000000000000000000000000000000000000000000000000000000000000000000000000000000000000000000000000000000000000000000000000000000000000000000000000000000000000000000000000000000000000000000000000000000000000000000000000000000000000000000000000000000000000000000000000000000000000000000000000000000000000000000000000000000000000000000000000000000000000000000000000000000000000000000000000000000000000000000000000000000000000000000000000000000000000000000000000000000000000000000000000000000000000000000000000000000000000000000000000000000000000000000000000000000000000000000000000000000000000000000000000000000000000000000000000000000000000000000000000000000000000000000000000000000000000000000000000000000000000000000000000000000000000000000000000000000000000000000000000000000000000000000000000000000000000000000000000000000000000000000000000000000000000000000000000000000000000000000000000000000000000000000000000000000000000000000000000000000000000000000000000000000000000000000000000000000000000000000000000000000000000000000000000000000000000000000000000000000000000000000000000000000000000000000000000000000000000000000000000000000000000000000000000000000000000000000000000000000000000000000000000000000000000000000000000000000000000000000000000000000000000000000000000000000000000000000000000000000000052220000000000000000000000000000000000000000000000000000000000000000000000000000000000000000000000000000000000000000000000000000000000000000000000000000000000000000000000000000000000000000000000000000000000000000000000000000000000000000000000000000000000000000000000000000000000000000000000000000000000000000000000000000000000000000000000000000000000000000000000000000000000000000000000000000000000000000000000000000000000000000000000000000000000000000000000000000000000000000000000000000000000000000000000000000000000000000000000000000000000000000000000000000000000000000000000000000000000000000000000000000000000000000000000000000000000000000000000000000000000000000000000000000000000000000000000000000000000000000000000000000000000000000000000000000000000000000000000000000000000000000000000000000000000000000000000000000000000000000000000000000000000000000000000000000000000000000000000000000000000000000000000000000000000000000000000000000000000000000000000000000000000000000000000000000000000000000000000000000000000000000000000000000000000000000000000000000000000000000000000000000000000000000000000000000000000000000000000000000000000000000000000000000000000000000000000000000000000000000000000000000000000000000000000000000000000000000000000000000000000000000000000000000000000000000000000000000000000000000000000000000000000000000000000000000000000000000000000000000000000000000000000000000000000000000000000000000000000000000000000000000000000000000000000000000000000000000000000000000000000000000000000000000000000000000000000000000000000000000000000000000000000000000000000000000000000000000000000000000000000000000000000000000000000000000000000000000000000000000000000000000000000000000000000000000000000000000000000000000000000000000000000000000000000000000000000000000000000000000000000000000000000000000000000000000000000000000000000000000000000000000000000000000000000000000000000000000000000000000000000
#0519a1:000000000000000000000000000000000000000000000000000000000000000000000000000000000000000000000000000000000000000000000000000000000000000000000000000000000000000000000000000000000000000000000000000000000000000000000000000000000000000000000000000000000000000000000000000000000000000000000000000000000000000000000000000000000000000000000000000000000000000000000000000000000000000000000000000000000000000000000000000000000000000000000000000000000000000000000000000000000000000000000000000000000000000000000000000000000000000000000000000000000000000000000000000000000000000000000000000000000000000000000000000000000000000000000000000000000000000000000000000000000000000000000000000000000000000000000000000000000000000000000000000000000000000000000000000000000000000000000000000000000000000000000000000000000000000000000000000000000000000000000000000000000000000000000000000000000000000000000000000000000000000000000000000000000000000000000000000000000000000000000000000000000000000000000000000000000000000000000000000000000000000000000000000000000000000000000000000000000000000000000000000000000000000000000000000000000000000000000000000000000000000000000000000000000000000000000000000000000000000000000000000000000000000000000000000000000000000000000000000000000000000000000000000000000000000000000000000000000000000000000000000000000000000000000000000000000000000000000000000000000000000000000000000000000000000000000000000000000000000000000000000000000000000000000000000000000000000000000000000000000000000000000000000000000000000000000000000000000000000000000000000000000000000000000000000000000000000000000000000000000000000000000000000000000000000000000000000000000000000000000000000000000000000000000000000000000000000000000000000000000000000000000000000000000000000000000000000000000000000000000000000000000000000000000000000000000000000000000000000000000000000000000000000000000000000000000000000000000000000000000000120000000000000000000000000000000000000000000000000000000000000000000000000000000000000000000000000000000000000000000000000000000000000000000000000000000000000000000000000000000000000000000000000000000000000000000000000000000000000000000000000000000000000000000000000000000000000000000000000000000000000000000000000000000000000000000000000000000000000000000000000000000000000000000000000000000000000000000000000000000000000000000000000000000000000000000000000000000000000000000000000000000000000000000000000000000000000000000000000000000000000000000000000000000000000000000000000000000000000000000000000000000000000000000000000000000000000000000000000000000000000000000000000000000000000000000000000000000000000000000000000000000000000000000000000000000000000000000000000000000000000000000000000000000000000000000000000000000000000000000000000000000000000000000000000000000000000000000000000000000000000000000000000000000000000000000000000000000000000000000000000000000000000000000000000000000000000000000000000000000000000000000000000000000000000000000000000000000000000000000000000000000000000000000000000000000000000000000000000000000000000000000000000000000000000000000000000000000000000000000000000000000000000000000000000000000000000000000000000000000000000000000000000000000000000000000000000000000000000000000000000000000000000000000000000000000000000000000000000000000000000000000000000000000000000000000000000000000000000000000000000000000000000000000000000000000000000000000000000000000000000000000000000000000000000000000000000000000000000000000000000000000000000000000000000000000000000000000000000000000000000000000000000000000000000000000000000000000000000000000000000000000000000000000000000000000000000000000000000000000000000000000000000000000000000000000000000000000000000000000000000000000000000000000000000000000000000000000000000000000000000000000000000000000000000000000000000000000000000000000052
#0529a1:22
#052920:120000000000000000000000000000000000000000000000000000000000000000000000000000000000000000000000000000000000000000000000000000000000000000000000000000000000000000000000000000000000000000000000000000000000000000000000000000000000000000000000000000000000000000000000000000000000000000000000000000000000000000000000000000000000000000000000000000000000000000000000000000000000000000000000000000000000000000000000000000000000000000000000000000000000000000000000000000000000000000000000000000000000000000000000000000000000000000000000000000000000000000000000000000000000000000000000000000000000000000000000000000000000000000000000000000000000000000000000000000000000000000000000000000000000000000000000000000000000000000000000000000000000000000000000000000000000000000000000000000000000000000000000000000000000000000000000000000000000000000000000000000000000000000000000000000000000000000000000000000000000000000000000000000000000000000000000000000000000000000000000000000000000000000000000000000000000000000000000000000000000000000000000000000000000000000000000000000000000000000000000000000000000000000000000000000000000000000000000000000000000000000000000000000000000000000000000000000000000000000000000000000000000000000000000000000000000000000000000000000000000000000000000000000000000000000000000000000000000000000000000000000000000000000000000000000000000000000000000000000000000000000000000000000000000000000000000000000000000000000000000000000000000000000000000000000000000000000000000000000000000000000000000000000000000000000000000000000000000000000000000000000000000000000000000000000000000000000000000000000000000000000000000000000000000000000000000000000000000000000000000000000000000000000000000000000000000000000000000000000000000000000000000000000000000000000000000000000000000000000000000000000000000000000000000000000000000000000000000000000000000000000000000000000000000000000000000000000000000000000000052220000000000000000000000000000000000000000000000000000000000000000000000000000000000000000000000000000000000000000000000000000000000000000000000000000000000000000000000000000000000000000000000000000000000000000000000000000000000000000000000000000000000000000000000000000000000000000000000000000000000000000000000000000000000000000000000000000000000000000000000000000000000000000000000000000000000000000000000000000000000000000000000000000000000000000000000000000000000000000000000000000000000000000000000000000000000000000000000000000000000000000000000000000000000000000000000000000000000000000000000000000000000000000000000000000000000000000000000000000000000000000000000000000000000000000000000000000000000000000000000000000000000000000000000000000000000000000000000000000000000000000000000000000000000000000000000000000000000000000000000000000000000000000000000000000000000000000000000000000000000000000000000000000000000000000000000000000000000000000000000000000000000000000000000000000000000000000000000000000000000000000000000000000000000000000000000000000000000000000000000000000000000000000000000000000000000000000000000000000000000000000000000000000000000000000000000000000000000000000000000000000000000000000000000000000000000000000000000000000000000000000000000000000000000000000000000000000000000000000000000000000000000000000000000000000000000000000000000000000000000000000000000000000000000000000000000000000000000000000000000000000000000000000000000000000000000000000000000000000000000000000000000000000000000000000000000000000000000000000000000000000000000000000000000000000000000000000000000000000000000000000000000000000000000000000000000000000000000000000000000000000000000000000000000000000000000000000000000000000000000000000000000000000000000000000000000000000000000000000000000000000000000000000000000000000000000000000000000000000000000000000000000000000000000000000000000000000000000000000000000
#0529c1:000000000000000000000000000000000000000000000000000000000000000000000000000000000000000000000000000000000000000000000000000000000000000000000000000000000000000000000000000000000000000000000000000000000000000000000000000000000000000000000000000000000000000000000000000000000000000000000000000000000000000000000000000000000000000000000000000000000000000000000000000000000000000000000000000000000000000000000000000000000000000000000000000000000000000000000000000000000000000000000000000000000000000000000000000000000000000000000000000000000000000000000000000000000000000000000000000000000000000000000000000000000000000000000000000000000000000000000000000000000000000000000000000000000000000000000000000000000000000000000000000000000000000000000000000000000000000000000000000000000000000000000000000000000000000000000000000000000000000000000000000000000000000000000000000000000000000000000000000000000000000000000000000000000000000000000000000000000000000000000000000000000000000000000000000000000000000000000000000000000000000000000000000000000000000000000000000000000000000000000000000000000000000000000000000000000000000000000000000000000000000000000000000000000000000000000000000000000000000000000000000000000000000000000000000000000000000000000000000000000000000000000000000000000000000000000000000000000000000000000000000000000000000000000000000000000000000000000000000000000000000000000000000000000000000000000000000000000000000000000000000000000000000000000000000000000000000000000000000000000000000000000000000000000000000000000000000000000000000000000000000000000000000000000000000000000000000000000000000000000000000000000000000000000000000000000000000000000000000000000000000000000000000000000000000000000000000000000000000000000000000000000000000000000000000000000000000000000000000000000000000000000000000000000000000000000000000000000000000000000000000000000000000000000000000000000000000000000000000000000000120000000000000000000000000000000000000000000000000000000000000000000000000000000000000000000000000000000000000000000000000000000000000000000000000000000000000000000000000000000000000000000000000000000000000000000000000000000000000000000000000000000000000000000000000000000000000000000000000000000000000000000000000000000000000000000000000000000000000000000000000000000000000000000000000000000000000000000000000000000000000000000000000000000000000000000000000000000000000000000000000000000000000000000000000000000000000000000000000000000000000000000000000000000000000000000000000000000000000000000000000000000000000000000000000000000000000000000000000000000000000000000000000000000000000000000000000000000000000000000000000000000000000000000000000000000000000000000000000000000000000000000000000000000000000000000000000000000000000000000000000000000000000000000000000000000000000000000000000000000000000000000000000000000000000000000000000000000000000000000000000000000000000000000000000000000000000000000000000000000000000000000000000000000000000000000000000000000000000000000000000000000000000000000000000000000000000000000000000000000000000000000000000000000000000000000000000000000000000000000000000000000000000000000000000000000000000000000000000000000000000000000000000000000000000000000000000000000000000000000000000000000000000000000000000000000000000000000000000000000000000000000000000000000000000000000000000000000000000000000000000000000000000000000000000000000000000000000000000000000000000000000000000000000000000000000000000000000000000000000000000000000000000000000000000000000000000000000000000000000000000000000000000000000000000000000000000000000000000000000000000000000000000000000000000000000000000000000000000000000000000000000000000000000000000000000000000000000000000000000000000000000000000000000000000000000000000000000000000000000000000000000000000000000000000000000000000000000000000000000052
#0539c1:22
#053940:120000000000000000000000000000000000000000000000000000000000000000000000000000000000000000000000000000000000000000000000000000000000000000000000000000000000000000000000000000000000000000000000000000000000000000000000000000000000000000000000000000000000000000000000000000000000000000000000000000000000000000000000000000000000000000000000000000000000000000000000000000000000000000000000000000000000000000000000000000000000000000000000000000000000000000000000000000000000000000000000000000000000000000000000000000000000000000000000000000000000000000000000000000000000000000000000000000000000000000000000000000000000000000000000000000000000000000000000000000000000000000000000000000000000000000000000000000000000000000000000000000000000000000000000000000000000000000000000000000000000000000000000000000000000000000000000000000000000000000000000000000000000000000000000000000000000000000000000000000000000000000000000000000000000000000000000000000000000000000000000000000000000000000000000000000000000000000000000000000000000000000000000000000000000000000000000000000000000000000000000000000000000000000000000000000000000000000000000000000000000000000000000000000000000000000000000000000000000000000000000000000000000000000000000000000000000000000000000000000000000000000000000000000000000000000000000000000000000000000000000000000000000000000000000000000000000000000000000000000000000000000000000000000000000000000000000000000000000000000000000000000000000000000000000000000000000000000000000000000000000000000000000000000000000000000000000000000000000000000000000000000000000000000000000000000000000000000000000000000000000000000000000000000000000000000000000000000000000000000000000000000000000000000000000000000000000000000000000000000000000000000000000000000000000000000000000000000000000000000000000000000000000000000000000000000000000000000000000000000000000000000000000000000000000000000000000000000000000000000000052220000000000000000000000000000000000000000000000000000000000000000000000000000000000000000000000000000000000000000000000000000000000000000000000000000000000000000000000000000000000000000000000000000000000000000000000000000000000000000000000000000000000000000000000000000000000000000000000000000000000000000000000000000000000000000000000000000000000000000000000000000000000000000000000000000000000000000000000000000000000000000000000000000000000000000000000000000000000000000000000000000000000000000000000000000000000000000000000000000000000000000000000000000000000000000000000000000000000000000000000000000000000000000000000000000000000000000000000000000000000000000000000000000000000000000000000000000000000000000000000000000000000000000000000000000000000000000000000000000000000000000000000000000000000000000000000000000000000000000000000000000000000000000000000000000000000000000000000000000000000000000000000000000000000000000000000000000000000000000000000000000000000000000000000000000000000000000000000000000000000000000000000000000000000000000000000000000000000000000000000000000000000000000000000000000000000000000000000000000000000000000000000000000000000000000000000000000000000000000000000000000000000000000000000000000000000000000000000000000000000000000000000000000000000000000000000000000000000000000000000000000000000000000000000000000000000000000000000000000000000000000000000000000000000000000000000000000000000000000000000000000000000000000000000000000000000000000000000000000000000000000000000000000000000000000000000000000000000000000000000000000000000000000000000000000000000000000000000000000000000000000000000000000000000000000000000000000000000000000000000000000000000000000000000000000000000000000000000000000000000000000000000000000000000000000000000000000000000000000000000000000000000000000000000000000000000000000000000000000000000000000000000000000000000000000000000000000000000000000000000
#0539a1:000000000000000000000000000000000000000000000000000000000000000000000000000000000000000000000000000000000000000000000000000000000000000000000000000000000000000000000000000000000000000000000000000000000000000000000000000000000000000000000000000000000000000000000000000000000000000000000000000000000000000000000000000000000000000000000000000000000000000000000000000000000000000000000000000000000000000000000000000000000000000000000000000000000000000000000000000000000000000000000000000000000000000000000000000000000000000000000000000000000000000000000000000000000000000000000000000000000000000000000000000000000000000000000000000000000000000000000000000000000000000000000000000000000000000000000000000000000000000000000000000000000000000000000000000000000000000000000000000000000000000000000000000000000000000000000000000000000000000000000000000000000000000000000000000000000000000000000000000000000000000000000000000000000000000000000000000000000000000000000000000000000000000000000000000000000000000000000000000000000000000000000000000000000000000000000000000000000000000000000000000000000000000000000000000000000000000000000000000000000000000000000000000000000000000000000000000000000000000000000000000000000000000000000000000000000000000000000000000000000000000000000000000000000000000000000000000000000000000000000000000000000000000000000000000000000000000000000000000000000000000000000000000000000000000000000000000000000000000000000000000000000000000000000000000000000000000000000000000000000000000000000000000000000000000000000000000000000000000000000000000000000000000000000000000000000000000000000000000000000000000000000000000000000000000000000000000000000000000000000000000000000000000000000000000000000000000000000000000000000000000000000000000000000000000000000000000000000000000000000000000000000000000000000000000000000000000000000000000000000000000000000000000000000000000000000000000000000000000000000000120000000000000000000000000000000000000000000000000000000000000000000000000000000000000000000000000000000000000000000000000000000000000000000000000000000000000000000000000000000000000000000000000000000000000000000000000000000000000000000000000000000000000000000000000000000000000000000000000000000000000000000000000000000000000000000000000000000000000000000000000000000000000000000000000000000000000000000000000000000000000000000000000000000000000000000000000000000000000000000000000000000000000000000000000000000000000000000000000000000000000000000000000000000000000000000000000000000000000000000000000000000000000000000000000000000000000000000000000000000000000000000000000000000000000000000000000000000000000000000000000000000000000000000000000000000000000000000000000000000000000000000000000000000000000000000000000000000000000000000000000000000000000000000000000000000000000000000000000000000000000000000000000000000000000000000000000000000000000000000000000000000000000000000000000000000000000000000000000000000000000000000000000000000000000000000000000000000000000000000000000000000000000000000000000000000000000000000000000000000000000000000000000000000000000000000000000000000000000000000000000000000000000000000000000000000000000000000000000000000000000000000000000000000000000000000000000000000000000000000000000000000000000000000000000000000000000000000000000000000000000000000000000000000000000000000000000000000000000000000000000000000000000000000000000000000000000000000000000000000000000000000000000000000000000000000000000000000000000000000000000000000000000000000000000000000000000000000000000000000000000000000000000000000000000000000000000000000000000000000000000000000000000000000000000000000000000000000000000000000000000000000000000000000000000000000000000000000000000000000000000000000000000000000000000000000000000000000000000000000000000000000000000000000000000000000000000000000000000000000052
#0549a1:22
