This file was generated by Ched 2.7.0.0.
#TITLE ""
#ARTIST ""
#DESIGNER ""
#DIFFICULTY 0
#PLAYLEVEL
#SONGID ""
#WAVE ""
#WAVEOFFSET 0
#JACKET ""
#REQUEST "ticks_per_beat 480"
#00002: 4
#BPM01: 148
#00008: 01
#TIL00: ""
#VOLUME: ""
#HISPEED 00
#MEASUREHS 00
#03518:00000014
#0351a:14
#03516:00140000
#03512:0014
#0361a:00140000
#03614:14
#03612:0014
#03618:00000014
#03610:41
#0681a:00140000
#06812:2614
#06818:00000014
#04318:0014
#04314:00000014
#0121a:1414
#01214:00140000
#01210:41
#01418:1414
#01412:00140000
#0161a:14
#01614:00140000
#01618:0014
#03414:00140014
#03418:2414
#03713:15
#03718:00150016
#03712:0016
#03914:00000014
#03912:14
#03916:00140000
#0391a:0014
#04012:00140000
#04018:14
#0401a:0014
#04014:00000014
#03818:00140014
#03814:2414
#04118:1415
#04113:00150000
#04514:0014
#04518:00000014
#04918:00000016
#05112:14
#0521a:14
#05314:14
#05418:14
#05414:0014
#05518:14
#05514:0014
#0561a:14
#05612:0014
#05814:00140000
#05818:0014
#05812:00000014
#0581a:24
#0581f:21
#0591a:14000014
#05916:00140000
#05912:0014
#05910:41
#06012:00140000
#0601a:00000014
#06116:1414
#06112:00140000
#0611a:00000014
#06218:00140000
#06214:0014
#0621a:00000014
#06212:24
#06312:14000014
#06316:00140000
#0631a:0014
#0641a:00140000
#06412:00000014
#06516:1414
#0651a:00140000
#06512:00000014
#06715:15
#06914:14
#0691a:00140000
#06916:0014
#06912:00000014
#07012:00140000
#0701a:2414
#07014:00000014
#07118:14
#07112:00140000
#07116:0014
#0711a:00000014
#07218:00140000
#07214:0014
#0721a:00000014
#07212:24
#07316:14
#07312:00140000
#01312:1414
#01318:00140000
#01514:1414
#0151a:00140000
#01712:14
#01718:00140000
#01714:0014
#01818:14
#01814:00140000
#0181a:0014
#01912:14
#0191a:00140000
#01914:0014
#01918:00000014
#02414:1414
#02418:00140014
#02512:1414
#0251a:00140000
#02618:1414
#02614:00140014
#0271a:1414
#02712:00140000
#02812:14
#02818:00140000
#02814:0014
#0281a:00000014
#02810:41
#02914:14
#02918:00140000
#02912:0014
#0301a:14
#03014:00140000
#03018:0014
#03012:00000014
#03118:14
#03114:00140000
#0311a:0014
#0501f:11
#04214:0000000000343434
#04418:0000000000343434
#04410:41
#02010:41
#0585a:14
#00352:00000016
#06852:16
#0705a:14
#03458:14
#03854:14
#04158:0015
#05055:16
#04958:00000066
#06057:14
#06055:0014
#06052:00540000
#0595a:00000064
#06352:00000054
#0645a:00640000
#06455:14
#06457:0014
#06252:14
#06552:00000054
#06755:65
#07252:14
#07354:0000000000000018
#07352:00540000
#03354:0014
#000380:1424
#001340:1424
#002390:1424
#003330:1434
#003320:00000026
#0043a0:14000034
#004380:00343400
#0053a0:34000024
#005380:00343400
#006320:14000034
#006340:00343400
#007320:34000024
#007340:00343400
#008380:14000034
#0083a0:00343400
#009380:34000024
#0093a0:00343400
#010340:14000034
#010320:00343400
#011340:34000024
#011320:00343400
#020320:1434
#020340:00340034
#021340:3434
#021320:00340024
#0223a0:1434
#022380:00340034
#023380:3434
#0233a0:00340024
#032320:14
#032340:0034
#033320:34
#033340:0024
#042320:1434
#042340:0000340000343434
#043340:34
#043320:00240000
#0443a0:1434
#044380:0000340000343434
#045380:34
#0453a0:00240000
#046320:1454545454542400
#046330:00540054005400540054005400000000
#047390:1555555555552500
#047380:00550055005500550055005500000000
#048320:1656565656562600
#048330:00560056005600560056005600000000
#049380:1656565656563600
#049370:00560056005600560056005600000000
#050350:26
#0573a0:14
#0583a0:24
#0593a0:00000014
#060370:24
#060320:00140000
#060350:0024
#063320:00000014
#064350:24
#0643a0:00140000
#064370:0024
#065320:00000014
#067350:35
#068320:26
#073320:00140000
#073360:0000000054340000
#073350:00000036
#073340:0000000000000028
