This file was generated by Ched 2.7.0.0.
#TITLE ""
#ARTIST ""
#DESIGNER ""
#DIFFICULTY 0
#PLAYLEVEL
#SONGID ""
#WAVE ""
#WAVEOFFSET 0
#JACKET ""
#REQUEST "ticks_per_beat 480"
#00002: 4
#BPM01: 150
#00008: 01
#TIL00: ""
#VOLUME: ""
#HISPEED 00
#MEASUREHS 00
#0501f:11
#0501a:24
#0711a:0014
#07114:14
#0701a:0014
#07014:14
#06712:0014
#06718:14
#06612:0014
#06618:14
#06418:1616
#06312:1616
#06218:0016
#06212:16
#06012:1616
#05918:1616
#05812:0016
#0581f:21
#05818:26
#05810:0041
#05518:14
#05114:14
#04412:0016
#04418:16
#04312:0016
#04318:16
#04212:0016
#04218:16
#04018:0016
#04012:16
#03918:0016
#03912:16
#03818:0016
#03812:26
#03810:41
#02918:14
#02814:14
#0271a:14
#02612:14
#0251a:14
#02414:14
#02318:14
#02212:14
#0211a:14
#02018:14
#02010:41
#01914:14
#01812:14
#01614:14
#01518:14
#0111a:14
#0101a:14
#00914:14
#00814:14
#00810:41
#00718:14
#00618:14
#00512:14
#00412:14
#0171a:14
#05412:24
#0361a:0034
#03512:34
#03412:0034
#03014:0034
#03010:41
#03114:34
#03318:34
#03218:0034
#04810:41
#000320:14
#001320:24
#0023a0:14
#0033a0:24
#012330:1656
#012320:00560056
#013330:5656
#013320:00560056
#014330:26
#030320:14
#030340:0034
#031340:3424
#0323a0:14
#032380:0034
#033380:3424
#034340:14
#034320:0034
#035320:3424
#036380:14
#0363a0:0034
#0373a0:24
#041320:1626
#045380:1626
#046320:14
#046330:0034
#047320:34
#047330:0034
#048320:34
#048330:0034
#049320:24
#0523a0:14
#0533a0:24
#056320:14
#057320:24
#061380:1626
#065320:1626
#068380:14
#0683a0:0034
#0693a0:34
#069380:0024
#072340:14
#072320:0034
#073320:34
#073340:0024
#074370:1656
#074380:00560056
#075370:5656
#075380:00560026
