This file was generated by Ched 2.7.0.0.
#TITLE ""
#ARTIST ""
#DESIGNER ""
#DIFFICULTY 0
#PLAYLEVEL
#SONGID ""
#WAVE ""
#WAVEOFFSET 0
#JACKET ""
#REQUEST "ticks_per_beat 480"
#00002: 4
#BPM01: 150
#00008: 01
#TIL00: ""
#VOLUME: ""
#HISPEED 00
#MEASUREHS 00
#00418:0013000000130013
#0041b:1300001300000000
#00412:13
#00415:00130013
#00515:0013000000130013
#0051b:13
#00512:1300001300000000
#00518:00130013
#00618:0013000000130013
#0061b:1300001300000000
#00615:00130013
#00612:13
#00018:13000000000000130013000000001300
#00012:0013000000000000
#00015:0000001300130000
#0001b:00130013
#00115:13000000000000130013000000001300
#00112:00130013
#0011b:0013000000000000
#00118:0000001300130000
#00815:00001300000000130000000013000000
#00818:0000130000130013
#0081b:0000001300000000
#00812:13
#00810:41
#01919:0013
#01914:0013
#01917:13
#01918:00130000
#01912:13
#01913:00130000
#02217:0000001313000000
#0221b:0000000000000013
#02212:0013
#02216:13
#0221a:24
#02312:13130000
#02315:0013000000000000
#0231b:13130000
#02318:0000001300000000
#04912:0000002400001400
#0491a:0000002400000014
#04918:0000000000130000
#04916:00000024000000000000000000000000
#0491b:53
#05016:00000000001400000000000000000000
#05012:14
#0501a:0000000000140000
#05015:00000014
#05018:0000000000000014
#0501f:11
#05212:00000013
#05215:0000000000000013
#05318:1300001300001300
#05315:0000230000230000
#0531b:00006363630000006363630000000000
#05416:13000000000000140000000000000000
#05412:00000000000000130000000000000000
#0541a:14
#05715:0013000013000000
#05718:00000013000000000013000000000000
#0571b:0000001300000000
#05716:00000014
#0571a:0000000000000014
#05712:0000240000240000
#06612:2300001300000000
#0661b:13000000000000130000000000000000
#06617:00000013000000000000000000000000
#06616:00000000000000000000000024646400
#06815:00000013
#06818:1400140000000013
#06812:0014001400130000
#06819:00140014001400140000000000000000
#0681a:0014001400000000
#06814:14140000
#06813:00140014001400140000000000000000
#06912:1313
#06918:00001300000000000000000000000013
#06915:0000130000000013
#0691b:1313
#07012:2300000000130000
#0701b:0023000000130000
#07018:00230013
#07015:0000230000000013
#07112:1300000000000014
#07115:0013000000001400
#07118:0000130000140000
#0711a:0000000000000014
#0711b:1300001300000000
#07116:0000001300000000
#07218:0000000000000013
#07215:00000000000000000000000000000013
#0721a:0014140000000000
#07212:00140000
#00218:13000000000000130013000000000000
#00212:0013000000001300
#0021b:00130000
#00215:0000001300130000
#0021a:00000024
#00718:00000013000000000000000000000000
#00715:00130000
#00712:1300000000131300
#0071b:1300001300000000
#00717:00000013
#01514:0013000000000000
#01519:00130000
#01517:13
#0151b:0013
#01412:0000000000000013
#0141b:0013
#01416:0000001313000000
#01417:13
#01718:0013001300000000
#01715:00130000
#0171b:13002323
#01712:1300000000000000000000000000000000630000000000000063000000000000
#01714:00002323
#01713:00000000000000000000000000000000000000000000000000000000000000000063000000000000000000000000000000630000000000000000000000000000
#0171a:00000000000000000000000000000000000000000000000000000000000000000063000000000000000000000000000000630000000000000000000000000000
#01719:0000000000000000000000000000000000630000000000000063000000000000
#01612:13
#0161b:0013
#01812:1313
#0181b:0000001300000013
#01817:1313
#02017:1313
#02012:1313
#02010:41
#02112:13002324
#02116:0000000000140000
#02118:0013000000000000
#02115:0000001300000000
#0211b:00230000
#0211a:00000024
#04014:0000000000000013
#04012:13000013
#04018:0000230000132300
#0401b:0000001300000000
#04015:0013000000000000
#04017:13
#0391b:13000013
#03919:0000000000000013
#03915:0000230000132300
#03912:0000001300000000
#03918:0013000000000000
#03916:13
#03814:0000000000000013
#03818:2600230000132300
#0381b:0000001300000000
#03815:0013000000000000
#03812:13000013
#03810:41
#0581b:0013000000000000
#05815:0000001300000000
#05812:2600000000130013
#05816:00000014
#05818:13230000
#0581f:21
#05810:0041
#0591b:1300000000130013
#05912:0013000000000000
#05918:0000001300000000
#05916:00000014
#05915:13230000
#06518:00001300130000000000001300000000
#06515:00000013000000000000130013000000
#06512:1300001300000000
#0651b:1300001300000000
#06712:1400000014000014
#0671a:1400000000000014
#06718:0014000014000000
#06716:0000140000140000
#06714:0000001400001400
#06719:00000000000000000000000000000014
#06713:00000000000000000000000000000014
#05516:1313
#0551b:1313
#05518:00130000
#05513:00130000
#05517:00000013
#05512:00000013
#03318:00001300130013000000160000000013
#03312:1300000016000013
#03315:00000013001300000000000000000000
#03512:0013000000000013
#03518:00000000000000001300000000000013
#0351b:0000001300000000
#0351a:0000000000530000
#03519:00000000000000000053000000000000
#03615:13001300000013000000000000130000
#0361b:00130013000013000000000000000000
#03618:0000000013130013
#03612:00000000240000000013001300000000
#0361a:00000024
#0461b:13535300530053530053530053535300
#04616:00220022
#04712:13535300530053530053530053535300
#04717:00230023
#0471b:53
#0481b:13535300530053530053530053535300
#04816:00240024
#04810:41
#04812:53
#00918:00001300000000130000000013000000
#00915:0000130000130013
#00912:1300001300000000
#0091b:13
#01015:00001300000000130000000013000000
#01018:0000130000130013
#0101b:1300001300000000
#01012:13
#01112:1300000000131300
#01118:00000013000000000000001300000000
#0111b:1300001300000000
#01115:0013130000000000
#02515:0013001300000000
#02518:00130000
#02512:13002323
#0251b:1300000000000000000000000000000000630000000000000063000000000000
#02519:00002323
#0251a:00000000000000000000000000000000000000000000000000000000000000000063000000000000000000000000000000630000000000000000000000000000
#02513:00000000000000000000000000000000000000000000000000000000000000000063000000000000000000000000000000630000000000000000000000000000
#02514:0000000000000000000000000000000000630000000000000063000000000000
#02816:1313
#0281b:1313
#02812:0000005300007300
#02817:0000005300007300
#02918:0013
#02915:0000000000130000
#02912:0024000000001300
#02916:53240000
#0291a:0000002400000000
#0291b:53
#0301a:14
#03015:00001300000000000000000000000013
#0301b:00130000
#03012:00130000
#03018:0000000000000013
#03010:41
#03215:0013000000001300
#03218:0000130000000013
#03212:13
#0321b:0000001300000000
#03118:00000000000000001300130000000013
#03115:0000000000000013
#0341b:0013000000000013
#03412:00000000000013000000005300000000
#03415:00000000000000001300000000000013
#03413:0000000000530000
#03414:00000000000000000053000000000000
#04118:00000013000013000000000000000000
#0411b:1300000000132300
#04112:0000001300000000
#04116:13000013
#04115:00230000
#04419:0000000000000013
#0441b:13000013
#04415:0000230000132300
#04412:0000001300000000
#04418:0013000000000000
#04416:13
#04417:00000000000000130000000000000000
#04312:13000013
#04314:0000000000000013
#04318:0000230000132300
#0431b:0000001300000000
#04315:0013000000000000
#04317:13
#04316:00000000000000130000000000000000
#04219:0000000000000013
#04215:0000230000132300
#04212:2300001300000000
#04218:0013000000000000
#0421b:13000013
#04217:00000000000000130000000000000000
#04514:0013000000000000
#04512:13000013
#04517:1313
#04519:00000013000000000000000000000000
#04516:0000230000000013
#0451b:0000001300000000
#04515:0000000000130000
#04518:00000000000000000000001300000000
#06118:00000013000013000000000013000000
#0611b:1313
#06115:0000231300001300
#06112:0013
#06012:1300000000130013
#0601b:0013000000000000
#06015:0000001300000000
#06016:00000014
#06018:13230000
#06215:0013000000000000
#0621b:0000001300000000
#06217:0000000000130000
#06218:2600230000000013
#06212:13000014
#06216:00000000000000140000000000000000
#06312:1300001300000000
#06318:0013000000000000
#06316:00000000000000140000130000000000
#06315:0000230000000013
#0631a:00000014
#0631b:13
#0641b:1300001300000000
#06415:0013000000000000
#06417:0000000000130000
#06412:13000014
#06416:00000000000000140000000000000000
#06418:0000230000000013
#07418:0000000013535353
#0741b:1353530000000000
#07412:0000135353000000
#07419:00000000000000000053005300000053
#0741a:00000053000000000000000000000000
#07413:00000000000000530000000000000000
#07515:1353530000000000
#07518:5300135353260000
#07512:0000000013532600
#07514:00000053000000000000000000000000
#07519:00000000000000530000000000000000
#07513:00000000000000000053000000000000
#01218:0000000013535353
#0121b:1353530000000000
#01212:0000135353000000
#01219:00000000000000000053005300000053
#0121a:00000053000000000000000000000000
#01213:00000000000000530000000000000000
#01315:1353530000000000
#01318:5300135353000000
#01312:0000000013530000
#01316:00000024
#0131a:0000000000240000
#01314:00000053000000000000000000000000
#01319:00000000000000530000000000000000
#01313:00000000000000000053000000000000
#02612:0000001300000013
#02616:1313
#0261b:1313
#0241b:13
#02416:13
#02417:0013
#02412:0013
#00312:2400002400000000
#00316:00000024000000000000000000000000
#0031a:0000002400000000
#0731a:2400002400002400
#07312:0000002400242400
#07314:0024000000000000
#07317:00240000
#03712:2400002400000000
#03716:00000024000000000000000000000000
#0371a:0000002400000000
#00452:13
#02252:0053
#02256:63
#0225a:14
#05056:00000000002400000000000000000000
#05052:54
#05456:53000000000000240000000000000000
#05452:00000000000000230000000000000000
#0545a:54
#06657:00000023000000000000000000000000
#0665b:53
#06652:13
#06952:0023
#0695b:0023
#06955:0000000000130000
#06958:0000000000130000
#0145b:0053
#01452:14
#01457:53
#01652:63
#0165b:0063
#0155b:0053
#01559:00000013
#01556:00000013
#01852:5363
#01857:13
#01959:0053
#01954:0053
#01957:53
#01958:00530000
#01952:53
#01953:00530000
#02057:5353
#02052:5353
#03858:16
#05852:16
#05856:00000014
#0655b:0000005300000000
#06555:00000053
#0675a:0000000000000024
#06759:00000000000000000000000000000054
#06752:0000000000000024
#06753:00000000000000000000000000000064
#06858:24240000
#06859:00540054005400540000000000000000
#0685a:0024002400000000
#06854:24240000
#06853:00640064006400640000000000000000
#06852:0024002400000000
#07558:0000000000460000
#07552:00000036
#05553:00630000
#05558:00630000
#05556:6363
#0555b:6363
#05557:00000063
#05552:00000063
#04952:1400001400000000
#04956:00000014000000000000000000000000
#0495a:0000001400000000
#07152:0000000000000054
#0715a:0000000000000014
#07156:0000002300000000
#0725a:00540000
#07252:00140000
#0025a:00000064
#00352:0000001400000000
#0035a:0000001400000000
#0085b:13
#00855:00000000000000530000000000000000
#0075b:0000005300000000
#00757:00000053
#00752:53
#00958:00000000000000630000000000000000
#01055:00000000000000530000000000000000
#0115b:0000005300000000
#01152:00000063
#01255:13
#01356:00000054
#02856:6363
#0285b:6363
#02852:00000023
#02857:00000023
#0305a:14
#03352:0016
#03358:0000000000160000
#04152:0000006300000000
#04156:63000063
#04252:13
#04257:00000000000000630000000000000000
#04556:0000000000000023
#04552:00000053
#04557:0023
#0455b:0000006300000000
#04457:00000000000000630000000000000000
#04356:00000000000000530000000000000000
#04856:00000054
#05956:00000014
#06056:00000014
#0615b:0023
#06158:0000005300001300
#06155:0000006300001300
#06152:0023
#06252:00000014
#06258:16
#06256:00000000000000640000000000000000
#0635a:00000014
#06356:00000000000000540000000000000000
#06452:00000014
#06456:00000000000000640000000000000000
#07352:0000001400005400
#0735a:0000005400001400
#02352:00000013
#0235b:00000013
#0265b:6363
#02656:13
#0245b:53
#02456:53
#02457:0023
#02452:0023
#03452:00000000000000000000001300000000
#0355a:0000000000130000
#03752:1400001400000000
#03756:00000014000000000000000000000000
#0375a:0000001400000000
#04652:13
#07055:00530000
#07058:00530000
#0023a0:00000014
#003360:24
#004320:00000000000000130000230000000000
#0053b0:00000000000000130000230000000000
#006320:00000000000000130000230000000000
#007320:13
#007350:00000023000000000000000000000000
#0073b0:0000001300000000
#007370:0000000000333300
#0083b0:23
#008350:00000000000000130000000000000000
#008320:0000000000230000
#009380:00000000000000130000000000000000
#0093b0:0000000000230000
#010350:00000000000000130000000000000000
#010320:0000000000230000
#0113b0:0000001300000000
#011380:0000000000230000
#011320:00000013
#012350:23
#013360:00000014
#014320:24
#014371:13
#0143b1:0000002300000000
#0143b1:0013
#014371:0000000000000023
#015361:0000001300002300
#0153b0:0013
#015390:00000023
#016320:13
#016360:0000002300000000
#016391:1500002500000000
#0163b1:0013
#016371:0000000000000023
#016320:0000000015000025
#018320:13
#018360:0000002300000000
#018320:0013
#018360:0000000000000023
#019370:13
#019390:0023000000000000
#019321:13
#019341:0023000000000000
#019381:00130000
#0193a1:0000002300000000
#019330:00130000
#019350:0000002300000000
#019390:0013
#0193b0:0000000000532300
#019341:0013
#019361:0000000000532300
#020371:13
#0203b1:0000002300000000
#020320:13
#020360:0000002300000000
#020370:0013
#0203b0:0000000000000023
#020321:0013
#020361:0000000000000023
#022361:13
#022321:0000002300000000
#022321:0013
#022361:0000000000000023
#023321:00001323
#0233b0:00001323
#0243b0:13
#024370:0000002300000000
#024361:13
#024321:0000002300000000
#024321:0013
#024361:0000000000000023
#024370:0013
#0243b0:0000000000000023
#0263b0:13
#026370:0000002300000000
#0263b0:0013
#026370:0000000000000023
#027360:1323000000000000
#0273b1:1323000000000000
#027321:0000132300000000
#027370:0000132300000000
#027360:00001323
#0273b1:00001323
#030381:0000001323000000
#030350:0000000013230000
#0303b1:0000000000132300
#030320:0000000000001323
#031380:1323000000000000
#031351:0013230000000000
#0313b0:0000132300000000
#031321:0000001300230000
#032351:0013
#032321:0000000000230000
#032380:0000000000130000
#0323b0:00000023
#034350:13230000
#034381:00132300
#035381:13230000
#035350:00132300
#038350:00000000000000130000230000000000
#039380:00000000000000130000230000000000
#040350:00000000000000130000230000000000
#041360:13
#041320:00000023000000000000000000000000
#041320:0000001300000000
#041360:0000000000333300
#042320:23
#042370:00000000000000130000000000000000
#0423b0:0000000000230000
#043360:00000000000000130000000000000000
#043320:0000000000230000
#044370:00000000000000130000000000000000
#0443b0:0000000000230000
#0453b0:0000001300230000
#045370:0053
#045320:00000013
#045360:0000000000000053
#046320:23
#048360:00000014
#049320:24
#050320:1400000000240000
#050360:00000000005400000000000000000000
#051350:14
#051330:003400000000000000000000
#051340:003400000000
#051320:00240000
#0513a1:00140000
#051381:003400
#051391:000000000034000000000000
#051371:0024
#051320:0014
#051340:000000000000003400000000
#051330:000034
#051350:00000024
#0513a1:00000014
#051381:000000000034
#051391:000000000000000000000034
#052371:34
#0523b1:00000023
#053321:00000013
#053331:00000000000000000000000000330000
#053341:0000000000000033
#053351:00000000000000000000000000000033
#054361:3300000000000023
#054321:00000000000000530000000000000000
#0543a0:1400000000000024
#054360:00000000000000540000000000000000
#055360:13
#055330:0023000000000000
#0553b1:13
#055381:0023000000000000
#055331:00130000
#055361:0000002300000000
#055380:00130000
#0553b0:0000002300000000
#055360:0013
#055320:0000000000230000
#0553b1:0013
#055371:0000000000230000
#055321:00000013
#055361:0000000000000023
#055370:00000013
#0553b0:0000000000000023
#056320:1454545454545454545454545454545454545454545454545454545454545454
#056330:00540054005400540054005400540054005400540054005400540054005400540054005400540054005400540054005400540054005400540054005400540054
#057320:24
#0563a1:1454545454545454545454545454545454545454545454545454545454545454
#056391:00540054005400540054005400540054005400540054005400540054005400540054005400540054005400540054005400540054005400540054005400540054
#0573a1:24
#0583a1:00000000000000140000000000000000
#058361:0000000000240000
#059321:00000000000000140000000000000000
#059361:0000000000240000
#0603a1:00000000000000140000000000000000
#060361:0000000000240000
#061351:13000023000000000000000000000000
#061381:0000001300230000
#0613b1:0053
#061350:0000001300230000
#061320:0053
#062360:00000000000000140000000000000000
#062320:0000000000240000
#063360:00000000000000140000000000000000
#0633a0:0000000000240000
#064360:00000000000000140000000000000000
#064320:0000000000240000
#0653b0:0000001300000000
#065380:0000000000230000
#065350:00000013
#066320:23
#0663b1:1300002300000000
#066371:00000053000000000000000000000000
#066321:0000000013230000
#0663b0:0000000000132300
#0673a0:0000000000000014
#067390:00000000000000000000000000000054
#068380:54542400
#068390:00540054005400540000000000000000
#0683a0:0054005400000000
#067321:0000000000000014
#067331:00000000000000000000000000000054
#068341:54542400
#068331:00540054005400540000000000000000
#068321:0054005400000000
#069321:0000001353000000
#069351:0000000000230000
#0693b0:0000001353000000
#069380:0000000000230000
#070350:00130000
#070320:0023
#070381:00130000
#0703b1:0023
#071361:0000001300000000
#071321:0000000000230000
#071321:0000000000000014
#072361:0024000000000000
#0723a1:00140000
#072361:0024
#0733a1:0000001400000000
#073361:0000000000240000
#073321:00000014
#074361:24
#0129b0:130000000000000000000000000000000000000000000000000000000000000000000000000000000000000000000000000000000000000000000000530000000000000000000000000000000000000000000000000000000000000000000000000000000000000000000000000000000000000000005353230000000000000000000000000000000000000000000000000000000000000000000000000000000000000000000000000000000000000000000000000000000000000000000000000000000000000000000000000000000000000000000000000000000000000000000000000000000000000000000000000000000000000000000000000000000000000000000000000000000000000000000000000000000000000000000000000000000000000000000000000000000000000000000000000000000000000000000000000000000000000000000000000000000000000000000000000000000000000000000000000000000000000000000000000000000000000000000000000000000000000000000000000000000000000000000000000000000000000000000000000000000000000000000000000000000000000000000000000000000000000000000000000000000000000000000000000000000000000000000000
#0129a0:00000053000000000000000000000000
#012921:000000000000000000000000000000000000000000000000000000000000000000000000000000000000000000000000000000000000000000000000000000000000000000000000000000000000000000000000000000000000000000000000000000000000000000000000000000000000000000000000130000000000000000000000000000000000000000000000000000000000000000000000000000000000000000000000000000000000000000000000530000000000000000000000000000000000000000000000000000000000000000000000000000000000000000000000000000000000000000005353230000000000000000000000000000000000000000000000000000000000000000000000000000000000000000000000000000000000000000000000000000000000000000000000000000000000000000000000000000000000000000000000000000000000000000000000000000000000000000000000000000000000000000000000000000000000000000000000000000000000000000000000000000000000000000000000000000000000000000000000000000000000000000000000000000000000000000000000000000000000000000000000000000000000000000000000000000000000000000000000
#012931:00000000000000530000000000000000
#012980:000000000000000000000000000000000000000000000000000000000000000000000000000000000000000000000000000000000000000000000000000000000000000000000000000000000000000000000000000000000000000000000000000000000000000000000000000000000000000000000000000000000000000000000000000000000000000000000000000000000000000000000000000000000000000000000000000000000000000000000000000000000000000000000000000000000000000000000000000000000000000000000000000000000000000000000000000000000000000000000000130000000000000000000000000000000000000000000000000000000000000000000000000000000000000000000000000000000000000000000000530000000000000000000000000000000000000000000000000000000000000000000000000000000000000000000000000000000000000000000000530000000000000000000000000000000000000000000000000000000000000000000000000000000000000000000000000000000000000000000000530000000000000000000000000000000000000000000000000000000000000000000000000000000000000000000000000000000000000000005353
#012990:00000000000000000053005300000053
#013980:23
#013951:130000000000000000000000000000000000000000000000000000000000000000000000000000000000000000000000000000000000000000000000530000000000000000000000000000000000000000000000000000000000000000000000000000000000000000000000000000000000000000005353230000000000000000000000000000000000000000000000000000000000000000000000000000000000000000000000000000000000000000000000000000000000000000000000000000000000000000000000000000000000000000000000000000000000000000000000000000000000000000000000000000000000000000000000000000000000000000000000000000000000000000000000000000000000000000000000000000000000000000000000000000000000000000000000000000000000000000000000000000000000000000000000000000000000000000000000000000000000000000000000000000000000000000000000000000000000000000000000000000000000000000000000000000000000000000000000000000000000000000000000000000000000000000000000000000000000000000000000000000000000000000000000000000000000000000000000000000000000000000000000
#013941:00000053000000000000000000000000
#013980:000000000000000000000000000000000000000000000000000000000000000000000000000000000000000000000000000000000000000000000000000000000000000000000000000000000000000000000000000000000000000000000000000000000000000000000000000000000000000000000000130000000000000000000000000000000000000000000000000000000000000000000000000000000000000000000000000000000000000000000000530000000000000000000000000000000000000000000000000000000000000000000000000000000000000000000000000000000000000000005353230000000000000000000000000000000000000000000000000000000000000000000000000000000000000000000000000000000000000000000000000000000000000000000000000000000000000000000000000000000000000000000000000000000000000000000000000000000000000000000000000000000000000000000000000000000000000000000000000000000000000000000000000000000000000000000000000000000000000000000000000000000000000000000000000000000000000000000000000000000000000000000000000000000000000000000000000000000000000000000000
#013990:00000000000000530000000000000000
#013921:000000000000000000000000000000000000000000000000000000000000000000000000000000000000000000000000000000000000000000000000000000000000000000000000000000000000000000000000000000000000000000000000000000000000000000000000000000000000000000000000000000000000000000000000000000000000000000000000000000000000000000000000000000000000000000000000000000000000000000000000000000000000000000000000000000000000000000000000000000000000000000000000000000000000000000000000000000000000000000000000130000000000000000000000000000000000000000000000000000000000000000000000000000000000000000000000000000000000000000005353230000000000000000000000000000000000000000000000000000000000000000000000000000000000000000000000000000000000000000000000000000000000000000000000000000000000000000000000000000000000000000000000000000000000000000000000000000000000000000000000000000000000000000000000000000000000000000000000000000000000000000000000000000000000000000000000000000000000000000000000
#013931:00000000000000000053000000000000
#017941:0013
#017921:0000000000000000000000000000000000230000000000000000000000000000
#0179b0:0013
#017990:0000000000000000000000000000000000230000000000000000000000000000
#017940:00000013
#017920:0000000000000000000000000000000000000000000000000023000000000000
#0179b1:00000013
#017991:0000000000000000000000000000000000000000000000000023000000000000
#025991:0013
#0259b1:0000000000000000000000000000000000230000000000000000000000000000
#025920:0013
#025940:0000000000000000000000000000000000230000000000000000000000000000
#025990:00000013
#0259b0:0000000000000000000000000000000000000000000000000023000000000000
#025921:00000013
#025941:0000000000000000000000000000000000000000000000000023000000000000
#028961:13
#028921:000000000000000000000000000000000000000000000000000000000000000000000000000000000000000000000000000000000000000000000000000000000000000000000000000000000000000000000000000000000000000000000000000000000000000000000000000000000000000000000000000000000000000000000000000000000000000000000000000000000000000000000000000000000000000000000000000000000000000000005353230000000000000000000000000000000000000000000000000000000000000000000000000000000000000000000000000000000000000000000000000000000000000000000000000000000000000000000000000000000000000000000000000000000000000000000000000000000000000000000000000000000000000000000000000000000000000000000000000000000000000000000000000000000000000000000000000000000000000000000000000000000000000000000000000000000000000000000000000000000000000000000000000000000000000000000000000000000000000000000000000000000000000000000000000000000000000000000000000000000000000000000000000000000000000000000000000000000000000000000000
#0289b0:13
#028970:000000000000000000000000000000000000000000000000000000000000000000000000000000000000000000000000000000000000000000000000000000000000000000000000000000000000000000000000000000000000000000000000000000000000000000000000000000000000000000000000000000000000000000000000000000000000000000000000000000000000000000000000000000000000000000000000000000000000000000005353230000000000000000000000000000000000000000000000000000000000000000000000000000000000000000000000000000000000000000000000000000000000000000000000000000000000000000000000000000000000000000000000000000000000000000000000000000000000000000000000000000000000000000000000000000000000000000000000000000000000000000000000000000000000000000000000000000000000000000000000000000000000000000000000000000000000000000000000000000000000000000000000000000000000000000000000000000000000000000000000000000000000000000000000000000000000000000000000000000000000000000000000000000000000000000000000000000000000000000000000
#028960:000000000000000000000000000000000000000000000000000000000000000000000000000000000000000000000000000000000000000000000000000000000000000000000000000000000000000000000000000000000000000000000000000000000000000000000000000000000000000000000000000000000000000000000000000000000000000000000000000000000000000000000000000000000000000000000000000000000000000000000000000000000000000000000000000000000000000000000000000000000000000000000000000000000000000000000000000000000000000000000000130000000000000000000000000000000000000000000000000000000000000000000000000000000000000000000000000000000000000000000000000000000000000000000000000000000000000000000000000000000000000000000000000000000000000000000000000000000000000000000000000000000000000000000000000000000000000000000000000000000000000000000000000000000000000000000000000000000000000000000000000000000000000000000000000000000000000000000000000000000000000000000000000000000000000000000000000000000000000000005353
#028920:00000053
#029960:23
#0289b1:000000000000000000000000000000000000000000000000000000000000000000000000000000000000000000000000000000000000000000000000000000000000000000000000000000000000000000000000000000000000000000000000000000000000000000000000000000000000000000000000000000000000000000000000000000000000000000000000000000000000000000000000000000000000000000000000000000000000000000000000000000000000000000000000000000000000000000000000000000000000000000000000000000000000000000000000000000000000000000000000130000000000000000000000000000000000000000000000000000000000000000000000000000000000000000000000000000000000000000000000000000000000000000000000000000000000000000000000000000000000000000000000000000000000000000000000000000000000000000000000000000000000000000000000000000000000000000000000000000000000000000000000000000000000000000000000000000000000000000000000000000000000000000000000000000000000000000000000000000000000000000000000000000000000000000000000000000000000000000005353
#028971:00000053
#0299b1:23
#034951:0013
#034921:00000000000000000000002300000000
#035981:0013
#0359a1:0000000000230000
#0469b1:13000000000000530000000000000000
#0479b1:23
#047920:13000000000000530000000000000000
#048920:23
#0489b1:13000000000000530000000000000000
#0499b1:23
#053981:13
#0539b1:0053230000000000
#053981:0000001300000000
#0539b1:0000000053230000
#066961:0000000000001424
#0749b1:130000000000000000000000000000000000000000000000000000000000000000000000000000000000000000000000000000000000000000000000530000000000000000000000000000000000000000000000000000000000000000000000000000000000000000000000000000000000000000005353230000000000000000000000000000000000000000000000000000000000000000000000000000000000000000000000000000000000000000000000000000000000000000000000000000000000000000000000000000000000000000000000000000000000000000000000000000000000000000000000000000000000000000000000000000000000000000000000000000000000000000000000000000000000000000000000000000000000000000000000000000000000000000000000000000000000000000000000000000000000000000000000000000000000000000000000000000000000000000000000000000000000000000000000000000000000000000000000000000000000000000000000000000000000000000000000000000000000000000000000000000000000000000000000000000000000000000000000000000000000000000000000000000000000000000000000000000000000000000000000
#0749a1:00000053000000000000000000000000
#074920:000000000000000000000000000000000000000000000000000000000000000000000000000000000000000000000000000000000000000000000000000000000000000000000000000000000000000000000000000000000000000000000000000000000000000000000000000000000000000000000000130000000000000000000000000000000000000000000000000000000000000000000000000000000000000000000000000000000000000000000000530000000000000000000000000000000000000000000000000000000000000000000000000000000000000000000000000000000000000000005353230000000000000000000000000000000000000000000000000000000000000000000000000000000000000000000000000000000000000000000000000000000000000000000000000000000000000000000000000000000000000000000000000000000000000000000000000000000000000000000000000000000000000000000000000000000000000000000000000000000000000000000000000000000000000000000000000000000000000000000000000000000000000000000000000000000000000000000000000000000000000000000000000000000000000000000000000000000000000000000000
#074930:00000000000000530000000000000000
#074981:000000000000000000000000000000000000000000000000000000000000000000000000000000000000000000000000000000000000000000000000000000000000000000000000000000000000000000000000000000000000000000000000000000000000000000000000000000000000000000000000000000000000000000000000000000000000000000000000000000000000000000000000000000000000000000000000000000000000000000000000000000000000000000000000000000000000000000000000000000000000000000000000000000000000000000000000000000000000000000000000130000000000000000000000000000000000000000000000000000000000000000000000000000000000000000000000000000000000000000000000530000000000000000000000000000000000000000000000000000000000000000000000000000000000000000000000000000000000000000000000530000000000000000000000000000000000000000000000000000000000000000000000000000000000000000000000000000000000000000000000530000000000000000000000000000000000000000000000000000000000000000000000000000000000000000000000000000000000000000005353
#074991:00000000000000000053005300000053
#075981:23
#075950:130000000000000000000000000000000000000000000000000000000000000000000000000000000000000000000000000000000000000000000000530000000000000000000000000000000000000000000000000000000000000000000000000000000000000000000000000000000000000000005353230000000000000000000000000000000000000000000000000000000000000000000000000000000000000000000000000000000000000000000000000000000000000000000000000000000000000000000000000000000000000000000000000000000000000000000000000000000000000000000000000000000000000000000000000000000000000000000000000000000000000000000000000000000000000000000000000000000000000000000000000000000000000000000000000000000000000000000000000000000000000000000000000000000000000000000000000000000000000000000000000000000000000000000000000000000000000000000000000000000000000000000000000000000000000000000000000000000000000000000000000000000000000000000000000000000000000000000000000000000000000000000000000000000000000000000000000000000000000000000000
#075940:00000053000000000000000000000000
#075981:000000000000000000000000000000000000000000000000000000000000000000000000000000000000000000000000000000000000000000000000000000000000000000000000000000000000000000000000000000000000000000000000000000000000000000000000000000000000000000000000130000000000000000000000000000000000000000000000000000000000000000000000000000000000000000000000000000000000000000000000530000000000000000000000000000000000000000000000000000000000000000000000000000000000000000000000000000000000000000005353230000000000000000000000000000000000000000000000000000000000000000000000000000000000000000000000000000000000000000000000000000000000000000000000000000000000000000000000000000000000000000000000000000000000000000000000000000000000000000000000000000000000000000000000000000000000000000000000000000000000000000000000000000000000000000000000000000000000000000000000000000000000000000000000000000000000000000000000000000000000000000000000000000000000000000000000000000000000000000000000
#075991:00000000000000530000000000000000
#075920:000000000000000000000000000000000000000000000000000000000000000000000000000000000000000000000000000000000000000000000000000000000000000000000000000000000000000000000000000000000000000000000000000000000000000000000000000000000000000000000000000000000000000000000000000000000000000000000000000000000000000000000000000000000000000000000000000000000000000000000000000000000000000000000000000000000000000000000000000000000000000000000000000000000000000000000000000000000000000000000000130000000000000000000000000000000000000000000000000000000000000000000000000000000000000000000000000000000000000000005353230000000000000000000000000000000000000000000000000000000000000000000000000000000000000000000000000000000000000000000000000000000000000000000000000000000000000000000000000000000000000000000000000000000000000000000000000000000000000000000000000000000000000000000000000000000000000000000000000000000000000000000000000000000000000000000000000000000000000000000000
#075930:00000000000000000053000000000000
