This file was generated by Ched 2.7.0.0.
#TITLE ""
#ARTIST ""
#DESIGNER ""
#DIFFICULTY 0
#PLAYLEVEL
#SONGID ""
#WAVE ""
#WAVEOFFSET 0
#JACKET ""
#REQUEST "ticks_per_beat 480"
#00002: 4
#BPM01: 150
#00008: 01
#TIL00: ""
#VOLUME: ""
#HISPEED 00
#MEASUREHS 00
#00418:00001300000013330000000000000000
#00412:14
#00415:00130013
#01918:0013000013000000
#01912:13130000
#0491a:0000002400001400
#04914:0000000000140014
#04912:00000024000000000000000000000000
#04918:24
#05014:00000014
#0501a:1400000000000014
#05016:00000000001400000000000000000000
#0501f:11
#05312:13
#05315:00130000
#05318:0013
#05718:1300000000130000
#05715:00130013
#05712:0013
#0571b:0000000000000013
#06818:00000013
#06815:0000000000000013
#06819:00140014001400140000000000000000
#0681a:1414141400000000
#06812:0000000000130000
#06915:0013000000000013
#06918:00000000130000000000000000000013
#06912:0000001300000000
#0691b:1300001300000000
#07012:2300000000130000
#0701b:00000013
#07015:0023000000000013
#07018:00230000
#07115:0013000000001300
#0711b:00130000
#07112:0000001300000013
#07118:1300000000130013
#00518:00130013
#0051b:13
#00515:00001300000013330000000000000000
#0071a:14140000
#00715:0014001400000000
#00717:00000014
#01515:0013000000000000
#01518:00130000
#0151b:1313
#01512:0000001300000000
#01415:0000001300000013
#0141b:0013
#01418:00130000
#01718:0013001300002300
#01715:13132300
#01713:0000000000000000000000000000000000630000000000000000000000000000
#0171a:0000000000000000000000000000000000000000000000000063000000000000
#01812:1313
#01818:0000001300000013
#02012:13
#02018:0013
#02010:41
#03815:00001300000013330000000000000000
#0381b:0000000000000013
#0381a:24
#03818:00230023
#03810:41
#04015:00001300000013330000000000000000
#0401a:14
#0401b:0000000000000013
#04018:00230023
#03912:1400000000000013
#03918:00001300000013330000000000000000
#03915:00230023
#0581b:0013000000130000
#05818:0000001300000000
#05815:00000000230000130000000000000000
#05812:24000016
#0581f:21
#05810:0041
#06716:0014000000140000
#0671a:0000140014000014
#06712:1400001400001400
#06719:00000000000000000000000000000014
#05514:14
#05518:00140000
#05515:0014
#05517:00000014
#03515:0000000000000013
#0351b:1313000000000000
#03512:0000131300000000
#03518:00000000000000001300000000000013
#03519:00000000000000000053000000000000
#0351a:0000000000530000
#02915:1313
#02918:0023000000130000
#02912:00230000
#0291b:0000002300000000
#03018:0013000000001313
#03012:00130000
#0301b:0000001300000000
#03015:0000000013130000
#03010:41
#03318:00000000000000000000130000000013
#03312:13
#03315:00003333333333000000000000001300
#04117:0014001400000000
#04115:00000014
#04112:14240000
#0741a:1454540000000000
#07414:0000145454545454
#07419:00000054000000000000000000000000
#07413:00000000000000540054005400000000
#01218:0000145454545454
#01219:00000000000000540054005400000000
#01314:1454545454002400
#01318:0000000000240000
#01313:00000054000000540000000000000000
#06112:0014001400000000
#06115:0014
#06118:14240000
#0611a:00000014
#06117:0000000000000014
#0001b:13000000000000000033130033000000
#00018:00001300000013330000000000000000
#00015:00130000
#00112:13000000000000000033130033000000
#00115:00001300000013330000000000000000
#00118:00130000
#0021b:13000000000000000033130033000000
#00218:00001300000013330000000000000000
#00215:00130000
#00615:00130013
#00612:13
#00618:00001300000013330000000000000000
#00815:00001300000013330000000013000000
#00818:00130000
#0081b:00000013
#00810:41
#00918:00001300000013330000000013000000
#00912:13000013
#00915:00130000
#01015:00001300000013330000000013000000
#0101b:13000013
#01018:00130000
#01112:14140000
#01117:0014001400000000
#01115:00000014
#02118:1300001300000000
#02115:0013000000130000
#02112:00230023
#0211b:0023
#02318:0013000000000000
#02315:00130000
#02312:1313
#0231b:0000001300000000
#02218:0000001300000013
#02212:0013
#02215:00130000
#0221b:23
#02515:0013001300002300
#02518:13132300
#0251a:0000000000000000000000000000000000630000000000000000000000000000
#02513:0000000000000000000000000000000000000000000000000063000000000000
#0261b:1313
#02615:0000001300000013
#02815:13
#02818:0013
#0271b:13
#02715:0013000000000000
#02718:00131300
#02712:0000001300000000
#03112:13
#03118:0013000000000000
#03115:0000130013130000
#0311b:0000001300000013
#03215:13001313
#03218:0013001300000013
#03212:00130000
#0321b:0000000000130000
#03412:13001300000000000000005300000000
#0341b:0000131300000000
#03418:0000000000000013
#03415:00000000000000001300000000000013
#03414:00000000000000000053000000000000
#03413:0000000000530000
#03612:1313000000002400
#03615:0000001300000000
#0361b:0000000013130000
#03618:0000000000000013
#0361a:00240000
#04218:00001300000013330000000000000000
#04212:2400000000000013
#0421b:00000013
#04215:00230023
#04418:00001300000013330000000000000000
#04412:1400000000000013
#0441b:00000013
#04415:00230023
#0431a:14
#04315:00001300000013330000000000000000
#0431b:0000000000000013
#04312:00000013
#04318:00230023
#04515:0014001400000000
#04517:00000014
#0451a:14240000
#04719:13535300530053530053530053535300
#04714:53
#04814:13535300530053530053530053535300
#04810:41
#04819:53
#04614:13535300530053530053530053535300
#05417:13
#0591a:14
#05912:0013000000130000
#05915:0000001300000000
#05918:00000000230000130000000016000000
#06012:14000016
#0601b:0013000000130000
#06018:0000001300000000
#06015:00000000230000130000000000000000
#06212:0013000000130000
#06215:0000001300000000
#06218:00000000230000130000000016000000
#0621a:24
#06312:14000016
#0631b:0013000000130000
#06318:0000001300000000
#06315:00000000230000130000000000000000
#0641a:14
#06412:0013000000130000
#06415:0000001300000000
#06418:00000000230000130000000016000000
#0651a:0014001400000000
#06517:0014
#06514:14140000
#06512:00000014
#06515:0000000000000014
#06618:0000001313000000
#06612:2400000000130000
#06615:00000000000000130000000000000000
#0661a:00000000000000000000000024646400
#0721b:00130000
#07215:00000000130000000000000000000013
#07218:0000000000000013
#07518:1454540000260000
#07512:0000145454002600
#07519:00000054000000000000000000000000
#07513:00000000000000540000000000000000
#00312:24
#00316:00000024000000000000000000000000
#0031a:0000002400000000
#0731b:2300002300000000
#07315:0023002300000000
#07318:00230023
#07312:00000023
#03712:0000002400000000
#03714:24
#0371a:00000024000000000000000000000000
#00452:14
#00458:0000005300000000
#06952:0000002300000000
#0695b:0000002300000000
#0145b:0053
#01452:13
#0155b:0053
#01558:00000013
#01852:5363
#01958:0053
#01952:00530000
#02052:53
#02058:0053
#0385a:14
#03855:0000005300000000
#05852:14000016
#0675a:0000000000000054
#06759:00000000000000000000000000000054
#06859:00540054005400540000000000000000
#0685a:5454545400000000
#05558:00640000
#05554:64
#05555:0064
#05557:00000064
#0495a:0000001400000000
#04952:00000014000000000000000000000000
#04958:14
#07152:0000000000000053
#07158:0000000000000053
#0035a:0000001400000000
#00755:0000005400000000
#00757:00000064
#01354:00000054
#03358:0000000000130000
#03352:53
#03355:0013
#07355:0000005300000000
#0735b:0000005300000000
#07352:00000013
#07358:00000013
#06152:0000006400000000
#06155:0024
#0615a:00000054
#06157:0000000000000024
#00058:0000006300000000
#0005b:0000000000230000
#00155:0000005300000000
#00152:0000000000230000
#00258:0000006300000000
#0025b:0000000000230000
#00555:0000006300000000
#00658:0000005300000000
#00855:0000006300000000
#0085a:14
#00958:0000005300000000
#01055:0000006300000000
#01157:0000006400000000
#01155:00000054
#01252:14
#02252:0063
#0225b:13
#02352:0063
#02355:00000013
#0265b:6353
#02855:63
#02858:0053
#02758:0053
#03958:0000006300000000
#04055:0000005300000000
#04157:0000006400000000
#04155:00000054
#04258:0000006300000000
#04252:14
#04355:0000005300000000
#04458:0000006300000000
#04555:0000005400000000
#04557:00000064
#05056:00000000002400000000000000000000
#0505a:64
#05457:63
#05958:00000016
#06052:00000016
#06258:00000016
#0625a:14
#06352:00000016
#06458:00000016
#0655a:0000005400000000
#06557:0024
#06552:00000064
#06555:0000000000000024
#06652:14
#0725b:00630000
#07255:00630000
#07558:0000000000160000
#07552:00000016
#03752:0000001400000000
#03754:14
#0375a:00000014000000000000000000000000
#03055:13
#07058:00530000
#000380:00000000000013330000000000002300
#0003b0:00000000000000000033330033000000
#001350:00000000000013330000000000002300
#001320:00000000000000000033330033000000
#002380:00000000000013330000000000002300
#0023b0:00000000000000000033330033000000
#004380:00000000000013330000000000000000
#0043b0:0000000000230000
#005350:00000000000013330000000000000000
#005320:0000000000230000
#006380:00000000000013330000000000000000
#0063b0:0000000000230000
#007350:0000001400000000
#007320:0000000000240000
#007370:00000014
#0083a0:24
#008350:00000000000013330000000000000000
#008320:0000000000230000
#009380:00000000000013330000000000000000
#0093b0:0000000000230000
#010350:00000000000013330000000000000000
#010320:0000000000230000
#011370:0000001400000000
#0113a0:0000000000240000
#011350:00000014
#012320:24
#013340:00000014
#014320:23
#0143b0:0013
#014380:00000023
#0153b0:0013
#015380:00000023
#016320:1600002600000000
#016380:0000000016000026
#018320:13
#018350:00230000
#018320:0013
#018350:00000023
#019320:00130000
#019350:0023
#019381:0013
#0193b1:00000023
#020321:13
#020351:0000002300000000
#020381:0013
#0203b1:0000000000000023
#022321:0013
#022351:00000023
#023321:0013
#023351:00000023
#024381:1600002600000000
#024321:0000000016000026
#0263b1:13
#026381:00230000
#0263b1:0013
#026381:00000023
#027381:0013
#0273b1:00000023
#028351:13
#028321:0000002300000000
#028381:0013
#0283b1:0000000000000023
#029351:00000013
#030351:23
#033321:13
#033351:00003333333333002300000000000000
#038351:00000000000013330000000000000000
#038321:0000000000230000
#039381:00000000000013330000000000000000
#0393b1:0000000000230000
#040351:00000000000013330000000000000000
#040321:0000000000230000
#041371:0000001400000000
#0413a1:0000000000240000
#041351:00000014
#042321:24
#042381:00000000000013330000000000000000
#0423b1:0000000000230000
#043351:00000000000013330000000000000000
#043321:0000000000230000
#044381:00000000000013330000000000000000
#0443b1:0000000000230000
#045351:0000001400000000
#045321:0000000000240000
#045371:00000014
#0463a1:24
#0503a1:1400000000240000
#050361:00000000005400000000000000000000
#051321:1424
#051331:003400000034000000000000
#051341:003434000000
#051351:00340000
#0513a0:0014
#051390:000000000000003400000034
#051380:000000003434
#051370:00000034
#0523a0:34
#052370:00000023
#0533b0:00000013
#0533a0:00000000000000000000000000330000
#053390:0000000000000033
#053380:00000000000000000000000000000033
#054370:33
#0543b0:00000023
#055340:14
#055320:0024000000000000
#055380:00140000
#0553a0:0000002400000000
#055350:0014
#055320:0000000000240000
#055370:00000014
#0553a0:0000000000000024
#056320:1454545454545454545454545454545454545454545454542400000000000000
#056330:00540054005400540054005400540054005400540054005400540054005400540054005400540054005400540054005400000000000000000000000000000000
#061320:0000001400240000
#061350:0054
#0613a0:00000014
#061370:0000000000000054
#0623a0:24
#0653a0:0000001400240000
#065370:0054
#065320:00000014
#065350:0000000000000054
#066320:24
#0673a0:0000000000000014
#067390:00000000000000000000000000000054
#0683a0:5454545424000000
#068390:00540054005400540000000000000000
#069320:0000001300000000
#069350:0000000000230000
#0693b1:0000001300000000
#069381:0000000000230000
#070381:00130000
#0703b1:0023
#071381:0000000000000013
#0723b1:0023000000000000
#071320:0000000000000013
#072350:0023000000000000
#072350:00130000
#072320:0023
#0723b1:00130000
#072381:0023
#073351:0000001300000000
#073321:0000000000230000
#0733b0:0000001300000000
#073380:0000000000230000
#012980:0000145454545424
#012990:00000000000000540054005400000000
#013940:1454545424000000
#013930:00000054000000540000000000000000
#017950:0013
#017930:0000000000000000000000000000000000230000000000000000000000000000
#017980:00000013
#0179a0:0000000000000000000000000000000000000000000000000023000000000000
#025980:0013
#0259a0:0000000000000000000000000000000000230000000000000000000000000000
#025950:00000013
#025930:0000000000000000000000000000000000000000000000000023000000000000
#034950:0013
#034920:00000000000000000000002300000000
#035980:0013
#0359a0:0000000000230000
#046940:13000000000000530000000000000000
#047940:23
#047991:13000000000000530000000000000000
#048991:23
#048940:13000000000000530000000000002300
#0669a0:0000000000001424
#0749a0:140000000000000000000000000000000000000000000000000000000000000000000000000000000000000000000000000000000000000000000000540000000000000000000000000000000000000000000000000000000000000000000000000000000000000000000000000000000000000000005454240000000000000000000000000000000000000000000000000000000000000000000000000000000000000000000000000000000000000000000000000000000000000000000000000000000000000000000000000000000000000000000000000000000000000000000000000000000000000000000000000000000000000000000000000000000000000000000000000000000000000000000000000000000000000000000000000000000000000000000000000000000000000000000000000000000000000000000000000000000000000000000000000000000000000000000000000000000000000000000000000000000000000000000000000000000000000000000000000000000000000000000000000000000000000000000000000000000000000000000000000000000000000000000000000000000000000000000000000000000000000000000000000000000000000000000000000000000000000000000000
#074990:00000054000000000000000000000000
#074941:000000000000000000000000000000000000000000000000000000000000000000000000000000000000000000000000000000000000000000000000000000000000000000000000000000000000000000000000000000000000000000000000000000000000000000000000000000000000000000000000140000000000000000000000000000000000000000000000000000000000000000000000000000000000000000000000000000000000000000000000540000000000000000000000000000000000000000000000000000000000000000000000000000000000000000000000000000000000000000000000540000000000000000000000000000000000000000000000000000000000000000000000000000000000000000000000000000000000000000000000540000000000000000000000000000000000000000000000000000000000000000000000000000000000000000000000000000000000000000000000540000000000000000000000000000000000000000000000000000000000000000000000000000000000000000000000000000000000000000005454240000000000000000000000000000000000000000000000000000000000000000000000000000000000000000000000000000000000000000000000
#074931:00000000000000540054005400000000
#075981:140000000000000000000000000000000000000000000000000000000000000000000000000000000000000000000000000000000000000000000000540000000000000000000000000000000000000000000000000000000000000000000000000000000000000000000000000000000000000000005454240000000000000000000000000000000000000000000000000000000000000000000000000000000000000000000000000000000000000000000000000000000000000000000000000000000000000000000000000000000000000000000000000000000000000000000000000000000000000000000000000000000000000000000000000000000000000000000000000000000000000000000000000000000000000000000000000000000000000000000000000000000000000000000000000000000000000000000000000000000000000000000000000000000000000000000000000000000000000000000000000000000000000000000000000000000000000000000000000000000000000000000000000000000000000000000000000000000000000000000000000000000000000000000000000000000000000000000000000000000000000000000000000000000000000000000000000000000000000000000000
#075991:00000054000000000000000000000000
#075920:000000000000000000000000000000000000000000000000000000000000000000000000000000000000000000000000000000000000000000000000000000000000000000000000000000000000000000000000000000000000000000000000000000000000000000000000000000000000000000000000140000000000000000000000000000000000000000000000000000000000000000000000000000000000000000000000000000000000000000000000540000000000000000000000000000000000000000000000000000000000000000000000000000000000000000000000000000000000000000005454240000000000000000000000000000000000000000000000000000000000000000000000000000000000000000000000000000000000000000000000000000000000000000000000000000000000000000000000000000000000000000000000000000000000000000000000000000000000000000000000000000000000000000000000000000000000000000000000000000000000000000000000000000000000000000000000000000000000000000000000000000000000000000000000000000000000000000000000000000000000000000000000000000000000000000000000000000000000000000000000
#075930:00000000000000540000000000000000
