This file was generated by Ched 2.7.0.0.
#TITLE ""
#ARTIST ""
#DESIGNER ""
#DIFFICULTY 0
#PLAYLEVEL
#SONGID ""
#WAVE ""
#WAVEOFFSET 0
#JACKET ""
#REQUEST "ticks_per_beat 480"
#00002: 4
#BPM01: 150
#00008: 01
#TIL00: ""
#VOLUME: ""
#HISPEED 00
#MEASUREHS 00
#0011a:14
#0031a:14
#00512:14
#00712:14
#00918:14
#07314:14
#0721a:14
#01214:14
#0131a:14
#01612:14
#01014:14
#01118:14
#01412:14
#0151a:14
#02518:2616
#02510:41
#02612:1616
#02718:16
#02712:0016
#02818:16
#02812:0016
#02918:2616
#03012:1616
#03118:16
#03112:0016
#03218:16
#03212:0016
#03518:16
#03512:0016
#03510:41
#03712:14
#0401a:14
#04114:14
#04218:14
#0381a:14
#03912:14
#05018:14
#05512:2616
#0551f:21
#05618:1616
#05610:41
#05712:16
#05718:0016
#05812:16
#05818:0016
#05912:2616
#06018:1616
#06112:16
#06118:0016
#06212:16
#06218:0016
#06512:16
#06518:0016
#06612:16
#06618:0026
#07112:14
#0471f:11
#06710:41
#04510:41
#01710:41
#017380:14
#018380:24
#019340:14
#020340:24
#0213a0:14
#0223a0:24
#023320:14
#024320:24
#033380:1626
#034320:1626
#036380:1626
#043320:14
#044320:24
#0453a0:14
#0463a0:24
#047320:14
#049340:24
#051340:14
#052340:24
#053380:14
#054380:24
#063320:1626
#064380:1626
#066380:0016
#067380:36
#070360:26
#074380:1400000000000024
