This file was generated by Ched 2.7.0.0.
#TITLE ""
#ARTIST ""
#DESIGNER ""
#DIFFICULTY 0
#PLAYLEVEL
#SONGID ""
#WAVE ""
#WAVEOFFSET 0
#JACKET ""
#REQUEST "ticks_per_beat 480"
#00002: 4
#BPM01: 150
#00008: 01
#TIL00: ""
#VOLUME: ""
#HISPEED 00
#MEASUREHS 00
#0741b:1300001313000000
#07412:1300000000000013
#07415:0013000000001300
#07418:0000130000130000
#07318:0000130000000013
#07312:0000001300000000
#07315:00000013
#07018:00130013
#07015:0013000000000013
#0701b:1300001300000000
#0711b:1300000000000013
#07118:00130000
#07112:1300001300000000
#07115:00000013
#06418:00000013
#06415:0000000000000013
#06416:0013130000000000
#0641b:13130000
#0651b:1300001300000000
#06518:0000000013000013
#06515:0000000000130000
#06512:13000013
#06316:0000000000000013
#06312:0000001313000000
#06317:0000001313000000
#0631b:13
#06315:13
#06218:0000001313000000
#06215:0000000000000013
#06212:0000001300000000
#06015:0000001300001300
#06018:0000000013000013
#06012:1300000000130000
#06017:13
#05916:13
#0591b:2300001300000000
#05918:0013
#05915:0000000000130000
#05912:00000013
#05917:0000000000000013
#00118:2600121200000000
#00116:0000000000120000
#00114:0000000000000012
#00112:26
#00216:0000000012120000
#00218:00000012
#0031a:12
#00316:0000121200000000
#00314:0000000000120000
#00312:0000000000000012
#00416:0000000000000012
#00516:1200000000000012
#0051a:0000121200000000
#00518:0000000000120000
#00714:1200000000000012
#00718:0000121200000000
#0071a:0000000000120000
#00618:0000001212000000
#00616:0000000000120000
#00614:0000000000000012
#00818:0000000000000013
#0161b:0012000000000000
#01619:0000120000120000
#01617:0000001200001200
#01615:0000000012000012
#00912:2300131300000013
#0091b:1300000000130000
#00918:0000001300000013
#00915:0000000000130000
#01215:00000013
#0121b:0000000000000013
#01318:1300001300000013
#01315:0013000000130000
#01312:0000131300000013
#0131b:0000000000130000
#01415:0013000000000013
#01418:00130013
#01412:0000001300000000
#0141b:0000000000130000
#01512:1300000000130000
#01518:00130013
#01515:0013000000000013
#0151b:0000001300000000
#01712:1300001300000013
#0171b:13
#01717:0013
#01710:41
#0191b:1300001300000013
#01912:13
#01916:0013
#02418:00000012
#02416:0000000000000012
#02414:0012
#0241a:0012
#03518:0000000000130013
#03512:1313
#0351b:0000001300000000
#03515:00000013
#03510:41
#03612:13
#03616:0000001300000000
#0281b:0000001300000000
#02815:0000000013000013
#02818:0000000000130000
#02812:00000013
#02912:0000001300000000
#02918:1300000013000013
#02915:0000000000130000
#0291b:00000013
#0301b:0000000000000013
#03018:0000001300130000
#03015:1313
#03012:00000013
#05812:0000001300000000
#05815:0013
#05818:0000000000130000
#0581b:00000013
#05816:0000000000000013
#03415:13130000
#0341b:00130000
#03418:0013000000000013
#03412:00000013
#03318:0000001300000000
#0331b:0000000000000013
#03312:0013
#03315:13
#03215:0000001300000000
#0321b:0000000000000013
#03718:0000001300000013
#03715:00131313
#03712:23
#03818:0000001300001300
#03815:1300130013000013
#0381b:0013
#03812:0000000000130000
#0391b:13
#03918:0000130000000013
#03915:0000001300001300
#04012:13
#04015:00130013
#0401b:1300000000000013
#04018:0013
#0551b:2300001300000000
#05518:0000000013000013
#05515:0000000000130000
#05512:13000013
#0551f:21
#05612:1300001300000013
#05615:00001313
#05618:0000000000130000
#0561b:13
#05610:41
#0571b:1313
#05718:0013000000001300
#05715:0000130000000013
#05712:0000001300130000
#02515:0000001300000013
#02518:00000013
#0251b:2313
#02512:2300000000130000
#02510:41
#0261b:0000001300000000
#02612:1300000000000013
#02618:00001313
#02615:0000000000130000
#02715:00131300
#02718:0013000000130000
#02712:0000001300000000
#0271b:13
#01815:0000001300000013
#01818:00001313
#0181b:0000000000130000
#01817:13
#02018:0000001300000013
#02015:00001313
#02012:0000000000130000
#02016:13
#02112:1300001300001313
#0211b:13
#02212:00130013
#0221b:0000001300000013
#02218:0013
#02215:0000000000130000
#02318:0013001300000000
#02315:1300131300000000
#04218:0013130000001300
#04215:1300130000000013
#0411b:0000001313000000
#04118:0000000000000013
#04112:0013
#04115:13
#04514:0000000000000013
#04512:1313
#0451b:23130013
#04510:41
#05112:1454545454545454
#05117:00000000001300000000000000000000
#05113:00540054005400540054005400540054
#0501b:1300001300000013
#05015:0013000000001300
#05018:0000130000130000
#05016:0000001300000000
#05012:13
#0521b:0000001300130000
#05218:13
#05219:0013000000001300
#0521a:00130000
#05217:0000000000000013
#05212:5454545454545454
#05213:00540054005400540054005400540054
#04415:0000131300000013
#04418:0000001300000000
#0441b:1300000000130000
#04412:23
#04318:0000131300000013
#04315:0000001300000000
#04312:1300000000130000
#0431b:23
#05415:0000001300130013
#05418:00001313
#05412:54
#0661b:13
#06612:1323
#06617:0013
#0671b:2300131300000000
#06719:0000000000001313
#06716:13
#06710:41
#0681a:0000131300000000
#06818:0000000000001313
#06919:0000131300000000
#06917:0000000000001313
#0471b:0000000000000013
#04712:13
#04716:0000000000000013
#04717:13
#0471f:11
#0461b:13002313
#04612:23131300
#04617:00130000
#04616:00000013
#0111b:1300131300000013
#01112:1300000000130000
#01115:0000001300000013
#01118:0000000000130000
#01015:0000000000000013
#0101b:0013
#01012:0000000000130000
#01018:00000013
#04914:12
#04916:0012000000000022
#04918:0000120000220000
#0491a:0000002200000000
#07218:00130000
#07212:0000001300000000
#07215:00000013
#0721b:0000000000000013
#0611b:2300002300002323
#06112:2300000000002323
#06115:0023000000230000
#06118:00232300
#03112:2323
#03115:0023000000002300
#03118:0000230000000023
#0311b:0000002300230000
#05312:5454545454545454
#05313:00540054005400540054005400540054
#06452:0013
#06456:00630000
#0645b:00630000
#06457:0013
#06357:0053
#0635b:63
#06258:0013000000000000
#06255:0013000000000000
#05956:63
#0595b:13
#00158:46
#00152:36
#02358:0000002300000016
#02355:0000002300000000
#02352:0000000000000016
#03652:53
#03656:0000002300000000
#02958:53
#03255:0013000000000000
#03258:0013000000000000
#03055:63
#03455:00630000
#03452:0013
#0345b:00630000
#03458:0013
#03352:0053
#03355:63
#03552:53
#0425b:0013
#04252:0013
#04258:00530000
#04255:00630000
#05755:0000000000000063
#05758:00000053
#05852:0013000000000000
#0585b:0013000000000000
#02652:53
#02852:0013000000000000
#0285b:0013000000000000
#0255b:13
#02552:13
#0175b:63
#01757:0053
#01952:53
#01956:0063
#0215b:63
#01857:53
#02056:63
#04152:0053
#0415b:0063
#04155:63
#0405b:63
#04058:0053
#04055:00630000
#06152:0000000000000053
#0615b:0000000000000063
#04552:5353
#0455b:13630000
#0505b:0000000000000063
#05056:0000006300000000
#05157:00000000002300000000000000000000
#05257:0000000000000053
#0445b:63
#04455:0000006300000000
#04452:13
#04352:53
#04358:0000005300000000
#0435b:13
#0545b:13
#05452:14
#0555b:13
#05552:53
#05652:13
#0565b:63
#06052:13
#06057:53
#06552:53
#0665b:63
#06657:0053
#06652:0053
#06756:63
#0675b:13
#0475b:0000000000000023
#04752:53
#04756:0000000000000023
#04757:53
#0465b:6313
#04657:00530000
#04656:00000063
#04652:1353
#0095b:63
#01152:53
#01358:0000000000000053
#0155b:0000006300000000
#0093b0:13
#009380:00230000
#011320:13
#011350:00230000
#013380:0000000000000013
#0143b0:0023000000000000
#0153b0:0000001300000000
#015380:0000000000230000
#0173b0:13
#017370:0000002300000000
#017370:0013
#0173b0:0000000000000023
#018370:13
#0183b0:0000002300000000
#019320:13
#019360:0000002300000000
#019360:0013
#019320:0000000000000023
#020360:13
#020320:0000002300000000
#0213b0:13
#021370:0000002300000000
#021370:00001323
#022370:13230000
#023380:0000001300360026
#023351:0000001300000000
#023321:0000000000360026
#026321:13
#026351:00230000
#0273b1:00000013
#0283b1:0023000000000000
#027320:0000000000000013
#028320:0023000000000000
#029380:13
#0293b0:00230000
#030350:13
#030320:00230000
#031350:00000013
#032350:0023000000000000
#031381:0000000000000013
#032381:0023000000000000
#0323b1:0013
#032381:00000000000000000000002300000000
#032320:00000000000000000000001300000000
#032350:0000000000000023
#033350:13
#033320:0000002300000000
#033320:0013
#033350:0000000000000023
#034350:00130000
#034320:0023
#0343b1:00130000
#034381:0023
#035321:13
#035351:0000002300000000
#036321:13000023
#036361:0000005300000000
#0373b1:13230000
#0373b1:00001323
#0383b1:13230000
#039321:13230000
#039381:00001323
#0403b1:13
#040381:00230000
#040350:00130000
#040320:0023
#040381:0013
#0403b1:00000023
#041351:13
#041321:0000002300000000
#0413b1:0013
#041381:00000023
#041320:0013
#041350:00000023
#042380:00130000
#0423b0:0023
#042351:00130000
#042321:0023
#043321:13
#043351:00230000
#043381:0000001300000000
#0433b1:0000000000230000
#0443b1:13
#044381:00230000
#044351:0000001300000000
#044321:0000000000230000
#045321:13
#045361:00230000
#0453b0:00130000
#045370:0023
#045321:0013
#045361:00000023
#0463b1:1323
#046371:00330000
#046320:0013
#046360:00000033
#047320:33
#047360:0000000000000053
#048320:00000023
#047371:13
#0473b1:0000000000000053
#048371:00000023
#050361:0000001300000000
#050321:0000000000230000
#0503b1:0000000000000013
#051371:00000000005300000000000000000000
#0513b1:00000023
#052371:0000000000000013
#0543b1:23
#055321:13
#055361:00230000
#0563b1:13
#056371:00230000
#057381:00000013
#0583b1:0023000000000000
#057350:0000000000000013
#058320:0023000000000000
#059360:13
#059320:00230000
#060370:13
#0603b0:00230000
#0613b0:0000000000000013
#062380:0023000000000000
#061321:0000000000000013
#062351:0023000000000000
#062321:0013
#062351:00000000000000000000002300000000
#062380:00000000000000000000001300000000
#0623b0:0000000000000023
#0633b0:13
#063370:00230000
#063370:0013
#0633b0:00000023
#064360:00130000
#064320:0023
#0643b1:00130000
#064371:0023
#065321:13
#065361:00230000
#0663b1:13
#066371:0033
#0673b1:23
#066320:0013
#067360:33
#070320:23
#071380:0000001300000000
#0713b0:00000023
#071350:0000000000000013
#072320:00230000
#0723b0:0000001300000000
#072380:00000023
#072320:0000000000000013
#073350:00230000
#0733b0:0000001300000000
#073380:00000023
#051920:1454545454545454
#051930:00540054005400540054005400540054
#052920:5454545454545454
#052930:00540054005400540054005400540054
#053920:5454545454545454
#053930:00540054005400540054005400540054
#054920:24
