This file was generated by Ched 2.7.0.0.
#TITLE ""
#ARTIST ""
#DESIGNER ""
#DIFFICULTY 0
#PLAYLEVEL
#SONGID ""
#WAVE ""
#WAVEOFFSET 0
#JACKET ""
#REQUEST "ticks_per_beat 480"
#00002: 4
#BPM01: 150
#00008: 01
#TIL00: ""
#VOLUME: ""
#HISPEED 00
#MEASUREHS 00
#03618:14
#00918:1414
#00912:00140014
#0101a:1414
#01014:00140014
#01118:1414
#01112:00140014
#0121a:1414
#01214:00140014
#01318:14
#01312:00140000
#0131a:0014
#01314:00000014
#01418:14
#01412:00140000
#0141a:0014
#01414:00000014
#01518:14
#01514:00140000
#0151a:0014
#01512:00000014
#01618:14
#0161a:0014
#01614:00140000
#01612:00000014
#01814:0014
#01818:00000014
#02018:0014
#02014:00000014
#02214:0014
#02218:00000014
#02312:14
#0231a:00140000
#02314:0014
#02318:00000014
#02414:14000014
#02418:0014
#02514:0014
#02518:00000014
#02510:41
#0261a:0014
#02614:00000014
#02718:1414
#02712:00140000
#02714:00000014
#0281a:14
#02814:0014
#02818:00000014
#02918:0014
#02914:00000014
#03218:0014
#03214:00000014
#03212:14
#03818:0014
#03812:00000014
#0401a:14
#04018:00140000
#04016:0014
#04014:00000014
#04112:14
#0411a:0014
#04212:14000014
#04216:00140000
#0421a:0014
#04318:14
#04314:00140000
#04319:0014
#04313:00000014
#04518:14
#04514:00140000
#04519:0014
#04513:00000014
#04510:41
#0441a:14
#04412:00140000
#04419:0014
#04413:00000014
#0461a:1414
#04612:00140014
#05418:0014
#05414:00000014
#05514:0014
#05518:00000014
#0551a:24
#0551f:21
#05612:14
#05618:0014
#05614:00000014
#05610:41
#05814:0014
#05818:14000014
#05918:0014
#05914:00000014
#05912:24
#0601a:14
#06014:0014
#06018:00000014
#07114:1414
#0711a:00140000
#07218:1414
#07212:00140000
#07314:1414
#0731a:00140000
#03012:0014
#03018:00000014
#03114:1414
#0311a:00140000
#03118:00000014
#03414:1414
#03418:00140000
#0341a:00000014
#05214:14
#0521a:0014
#05012:0014
#05018:14
#03512:14
#03518:0014
#03514:00000014
#03510:41
#0471a:14
#0471f:11
#04816:14
#04914:0014
#0571a:1414
#05712:00140000
#05714:00000014
#06112:1414
#0611a:00140000
#06118:00000014
#06214:14000014
#0621a:0014
#06412:1414
#0641a:00140000
#06418:00000014
#06514:14
#0651a:0014
#06516:00000014
#06612:14
#0661a:0024
#06717:14
#06710:41
#01710:41
#03658:54
#0555a:14
#03358:0014
#0425a:0014
#05652:14
#0605a:14
#05952:14
#0285a:14
#03252:14
#04856:24
#0475a:64
#0635a:0014
#06757:54
#0665a:0064
#0013a0:14
#0023a0:24
#003320:14
#004320:24
#005380:14
#006380:24
#007340:14
#008340:24
#0173a0:14240000
#017340:00001424
#0183a0:14240000
#019320:14240000
#019380:00001424
#020320:14240000
#021380:14240000
#021340:00001424
#022380:14240000
#025380:14
#0253a0:00240000
#026340:14
#026320:00240000
#029340:14
#029320:00240000
#030380:14
#0303a0:00240000
#0333a0:14
#033380:0024
#036380:14
#0363a0:00000024
#037340:14240000
#0373a0:00001424
#038320:14240000
#039380:14240000
#039340:00001424
#0473a0:14
#048360:54
#0493a0:24
#051380:14
#0513a0:0024
#053340:14
#054320:24
#063380:14
#0633a0:0024
#0663a0:0014
#067370:34
#0703a0:24
#0743a0:1400340034003424
