This file was generated by Ched 2.7.0.0.
#TITLE ""
#ARTIST ""
#DESIGNER ""
#DIFFICULTY 0
#PLAYLEVEL
#SONGID ""
#WAVE ""
#WAVEOFFSET 0
#JACKET ""
#REQUEST "ticks_per_beat 480"
#00002: 4
#BPM01: 179
#00008: 01
#TIL00: ""
#VOLUME: ""
#HISPEED 00
#MEASUREHS 00
#0031a:14
#00310:41
#0041a:14
#00512:14
#00612:14
#00718:14
#00814:14
#01114:14
#01218:14
#0151a:14
#01614:14
#01912:14
#02018:14
#03118:2616
#03110:41
#03212:1616
#03912:0016
#03918:26
#04018:16
#04012:0016
#03518:1616
#03612:1616
#04312:0016
#04318:16
#04310:41
#04418:16
#04412:0016
#04918:0016
#04912:16
#05014:14
#05118:14
#05214:14
#05318:14
#06118:14
#06114:0014
#06218:2616
#0621f:00210000
#06312:1616
#06418:16
#06412:0016
#06410:41
#06612:2616
#06718:1616
#06812:16
#06818:0016
#0781a:14
#07810:41
#07912:14
#08018:14
#08114:14
#08718:0014
#0541f:11
#00118:26
#00212:26
#0601a:24
#06012:24
#07212:24
#0721a:24
#07313:24
#07319:24
#07412:24
#0741a:24
#02912:24
#08814:24
#01710:41
#009380:14
#010380:24
#013340:14
#014340:24
#017380:14
#018380:24
#021340:14
#022340:24
#0233a0:14
#0243a0:24
#025320:14
#026320:24
#027380:14
#028380:24
#029320:14
#030320:0024
#033380:1626
#034320:1626
#037380:1626
#038320:1626
#041380:1626
#042320:1626
#045380:1626
#046320:1626
#047380:16
#048380:26
#054320:14
#055320:24
#0563a0:14
#0573a0:24
#058320:14
#059320:24
#065380:1626
#069320:1626
#070380:16
#071380:26
#075330:14
#076330:24
#075391:14
#076391:24
#0823a1:1424
#083321:1424
#084381:1424
#085341:14
#087341:24
