This file was generated by Ched 2.7.0.0.
#TITLE ""
#ARTIST ""
#DESIGNER ""
#DIFFICULTY 0
#PLAYLEVEL
#SONGID ""
#WAVE ""
#WAVEOFFSET 0
#JACKET ""
#REQUEST "ticks_per_beat 480"
#00002: 4
#BPM01: 179
#00008: 01
#TIL00: ""
#VOLUME: ""
#HISPEED 00
#MEASUREHS 00
#0541f:11
#05418:0000000000001212
#0541c:0012
#0541a:00120000
#05412:00646464
#0351a:0014
#03513:00140000
#03518:14000013
#03515:0000000000000013
#03512:0024
#03519:00240000
#03514:24
#04412:0013000000000013
#04418:0000130000130000
#04415:0000001300001300
#0441b:0013
#04318:2400000000000013
#04315:00000013
#04312:0014
#04319:00140000
#04314:14
#0431a:0024
#04313:00240000
#04310:41
#0401b:0013000000000013
#04015:0000130000130000
#04018:0000001300001300
#04012:0013
#03915:0000000000000013
#03918:00001413
#03913:00140000
#0391a:14
#03914:0024
#03919:00240000
#03912:24
#04218:00231300
#04215:13000023
#04212:00231300
#0421b:13000023
#04112:0013000000000013
#04115:00130013
#0411b:0013
#04118:0000001300130000
#03215:0013000000000013
#03218:0000001300001300
#03212:0000000000130000
#03415:00231300
#03418:13000023
#0341b:00231300
#03412:13000023
#0331b:0013000000000013
#03318:00130013
#03312:0013
#03315:0000001300130000
#03118:0000000024000013
#03114:0014
#03119:00140000
#03112:14
#03115:00000013
#03113:00240000
#0311a:24
#03110:41
#04912:14002414
#0491a:14002414
#04916:0024242400000000
#03816:0000000000141414
#03815:0013000000000000
#0381b:0013
#03016:0000000000141414
#03012:34343434343434340000000000000000
#07815:0013000013130000
#0781b:2300001300001300
#07812:0000130000000013
#07818:00130000
#07810:41
#00214:0000002400001400
#00218:0024
#00212:24
#0021a:00000024000000000000000000000000
#05112:00131300
#05118:00001300000000000000001300001300
#05115:1300000000131300
#05015:0013000013001300
#05012:2300000000000013
#0501b:2300001300000000
#05018:00130000
#07012:13
#0701b:23
#0471b:13
#04712:23
#01312:1300130000000013
#01315:00001300000000130000000000000000
#01318:00000013000013000000000000000000
#0131b:13
#01416:00130000000000001400000014000000
#0141b:00130000
#0141a:0000000000000014
#01412:0000000000140000
#00615:0013001300001300
#0061b:00130000
#00618:23
#0811b:00000000130013000000000000130013
#08112:0000130000001313
#08118:23000000000000000013001300000000
#08115:0013000013130000
#08012:1300001300001300
#0801b:0000130000000013
#08018:0013000013130000
#08015:00130000
#07912:0000131300001300
#07918:00001300000000000000001300001300
#07915:1300000000130000
#0791b:00130000
#08718:00000013
#08715:00000000001300000000000013000000
#08712:13001300000000130000000000000000
#0871b:0013130000000000
#08518:0000230000131600
#08515:0013001300002300
#0851b:2313
#08512:0023
#0841b:2300230000531300
#08412:0013000023002300
#08417:0013
#08419:00000000000013000053000000000000
#08415:0000000000000013
#08414:00000053000000000000000000000000
#08416:00530000
#08312:23001353
#08318:0013001300002300
#08315:0000230000000013
#0831b:0023
#08314:00000000000000000053005300000000
#08316:0000000000530000
#08212:2300230000531300
#0821b:0013000023002300
#08216:0013
#08214:00000000000013000053000000000000
#08218:0000000000000013
#08219:00000053000000000000000000000000
#08217:00530000
#07512:1c
#04616:00130000
#04618:0000000000000013
#04615:00000013
#04612:0000000000130000
#0461b:0013130000000000
#06917:00130000
#06915:0000000000000013
#06918:00000013
#0691b:0000000000130000
#06912:0013130000000000
#06812:0013000000000000
#06817:0013000000000000
#06816:0000001313000000
#0681b:0000000000001313
#06712:0000000013000013
#0671b:0000000013000013
#06718:00130013
#06715:0013001300130000
#06612:0000240000001313
#0661b:0000000000001313
#0661a:00240000
#06614:2424
#06618:2424
#06514:0000000000130000
#06512:00231300
#06519:0013000000000000
#0651b:13000023
#06516:00000023
#06517:00230000
#06418:0000001300130000
#06412:0013000013000013
#06415:00130013
#0641b:0000000013000013
#06410:41
#0631b:0000000013000013
#06312:0000000013000013
#06315:00130013
#06318:0013001300130000
#0621b:0000000000001313
#06212:0000240000001313
#0621f:00210000
#06214:0024
#06218:0024
#0621a:00240000
#05914:0012120000001212
#05912:0000000012120000
#0591a:64646464
#05816:0000000000001212
#05812:6412
#05814:00120000
#0581a:00646464
#05618:0012120000000000
#0561c:0000000000000012
#0561a:0000000012120000
#05612:64646464
#05518:0000000000000012
#0551c:0000001200120000
#0551a:0012000000001200
#05512:64646464
#0531a:2414
#05312:0024
#0451b:0013000000000000
#04516:0013000000000000
#04517:0000001313000000
#04512:0000000000001313
#0371b:0013
#03718:0013000000000013
#03715:00130013
#03612:00130000000000000000000000001300
#03618:0000130000130000
#03615:0000001300001300
#0361b:0013
#02916:00000014
#02912:24343434343434343434343400343434
#0291b:23
#02715:0000001300001300
#02718:00131300
#02712:13
#0271b:23
#02818:0000001300001300
#02815:00131300
#0281b:13
#02812:23
#02615:0013000013000000
#0261b:0000001300000000
#02618:00130000
#02612:13
#02415:1300001300001300
#0241b:13000013
#02418:0013
#02412:00130000
#02512:23130000
#0251b:1313
#02518:0000000000130013
#02515:00000013
#02312:13
#02316:00000013000000000000000000000000
#0231b:2300001300000000
#02215:0013
#02216:00130000000000000000000000000000
#02212:00000014
#0221a:0000000000140000
#0221b:00230000
#02112:1300000013000013
#02118:0000230000130000
#0211b:00000000000000130000000000000000
#02115:00001300001300000000000023000000
#02018:0000000000130000
#0201b:0000231300000013
#02017:13
#02019:0013000000000000
#02012:13000023
#01918:1300001300002300
#01915:0000230000130013
#0191b:0013
#01912:0013000000000000
#01812:0000230000140014
#0181a:00000014
#0181b:0000001300000000
#01817:00130000000000000000000000000000
#0171b:1300000000000013
#01715:0000230000130000
#01718:0013001300002300
#01712:0013
#01710:41
#01518:0000230000130013
#01512:0013
#01515:1300001300002300
#0151b:0013000000000000
#01612:0000231300000013
#01616:13
#01614:0013000000000000
#0161b:13000023
#01615:0000000000130000
#0101a:0000000000140014
#01012:00000014
#01212:1313000000001300
#0121b:1313000000001300
#01218:0000000000000013
#01215:0000000000130000
#01112:0013
#01118:0000130000130013
#01115:0013001300001300
#0111b:0013
#00915:0000000000000013
#0091b:0013000000000000
#00912:13240000
#00916:0024
#00918:0000000000240000
#0091a:00000024
#00914:0000002400000000
#00818:00130013
#00812:1300001300000000
#0081b:1300001300000000
#00815:0013000000130000
#00712:0013000013000000
#00715:0000000000130013
#0071b:2313
#00718:0000001300001300
#00518:0000000013000013
#00512:0000001300131300
#0051b:0013130000000000
#00412:0000130000000013
#00418:0013001300130000
#00415:13000000000000000000001300000000
#0041b:00000013
#00315:0000000013000013
#0031b:2300001300131300
#00312:0013130000000000
#00310:41
#06016:24
#0601a:64
#07316:0024242400000000
#07312:0024
#0731a:0024
#07315:0000000000333300
#07318:0000000000333300
#08812:26
#08818:26
#07412:0025
#07419:0025
#07416:0024242400000000
#07415:0000000000333300
#07418:0000000000333300
#0721b:0023
#07212:2623
#07216:0024242400000000
#07215:0000000000333300
#07218:0000000000333300
#07115:23
#07118:00240026
#07113:0025
#06116:0000000000242424
#06114:00000023000000000000000000000000
#06119:00000023000000000000000000000000
#0611b:2300002323000000
#06112:2300002323000000
#05212:0024
#0521a:24
#04812:00000026
#04818:2325
#04814:00240000
#00112:2400002300000000
#0011b:0000002300000000
#0011a:24
#07712:0000002c
#05712:64646464
#07459:0000000000000015
#07452:0000000000000015
#0735a:0000000000000014
#07352:0000000000000014
#0725b:0000000000000013
#07252:1600000000000013
#0385b:0013000000000000
#03855:0063000000000000
#02852:13000013
#02858:00000053
#02855:0063
#0285b:63
#0275b:13000013
#02755:00000063
#02758:0053
#02752:53
#02652:00000013
#02655:0063
#02352:53000013
#0235b:13000013
#02356:00000023000000000000000000000000
#02056:0000001300000000
#02052:53
#01657:0000001300000000
#0165b:63
#03752:0013
#03758:0000000000000053
#03755:00630000
#01255:0000001300000000
#01258:0000001300000000
#01252:0053000000000000
#0125b:0063000000000000
#03552:0014
#03559:00140000
#03554:14
#03555:0000000000000063
#0435a:0014
#04353:00140000
#04358:1400000000000053
#03954:0014
#03959:00140000
#03952:14
#03955:0000000000000063
#0425b:63000013
#04255:00000013
#04252:00135300
#04258:00130000
#03452:53000013
#03458:00000013
#0345b:00136300
#03455:00130000
#03158:0000000014000053
#03153:00140000
#0315a:14
#08852:36
#08858:46
#0855b:13
#08558:00000066
#0845b:13
#08352:13
#0705b:13
#07052:53
#07155:13
#07158:00140016
#07153:0015
#06652:00140000
#0665a:00140000
#06654:1414
#06658:1414
#0665b:0000000000000063
#06254:0014
#06258:0014
#06252:0000140000000053
#0625a:00140000
#0655b:00000013
#06556:00000013
#06552:00130000
#06557:00130000
#05352:0014
#0535a:1464
#05252:0014
#0525a:14
#04852:00000016
#04858:1315
#04854:00140000
#04752:13
#0475b:63
#02952:54
#0295b:13
#02956:00000024
#02552:13530000
#0255b:63
#00152:14
#0015a:14
#08252:13
#07752:0000001c
#04452:0000000000000013
#0405b:0000000000000013
#03255:0063000000000013
#03258:0000005300000000
#0495a:00000014
#04952:00000014
#00254:00000014
#01352:0000000000000053
#01456:00230000000000000000000000000000
#0145a:0000000000000014
#01452:0000000000140000
#00655:00000063
#0065b:00130000
#08052:00000013
#0805b:00130000
#08152:00130000
#07952:00000013
#0795b:00130000
#0785b:00000013
#07852:00130000
#08758:00000023
#08755:00000023
#07552:5c
#04656:00630000
#0465b:00630000
#06957:00530000
#06952:00530000
#06857:0053000000000000
#06856:0063
#0685b:0000000000000063
#06752:0000000000000013
#0635b:0000000000000013
#04556:0063000000000000
#04557:0053
#04552:0000000000000053
#03652:00230000000000000000000000001300
#02455:00000063
#0245b:63
#02152:0000000000000053
#02256:00230000000000000000000000000000
#02252:00000014
#0225a:0000000000140000
#01852:0000000000140014
#0185a:00000014
#01857:00230000000000000000000000000000
#0175b:0000000000000063
#0105a:0000000000140014
#01052:00000014
#00955:0000000000000063
#00858:00000053
#00752:0053000000000000
#00552:00000013
#0055b:00130000
#00452:00130000
#0045b:00000013
#0035b:00000013
#00352:00130000
#001320:00001323
#0013b1:00001323
#002321:14000024000000000000000000000000
#0023a0:00000014000024000000000000000000
#002341:0000001424000000
#002380:00001424
#006380:0000000000132300
#006351:00000013
#007321:23
#007321:0013000000000000
#007351:0000002300000000
#008381:00000013
#0093b1:23
#009351:0000000000000013
#010321:00230000
#012321:0013000000000000
#012351:0000002300000000
#0123b0:0013000000000000
#012380:0000002300000000
#0133b0:0000000013230000
#013351:0000000000132300
#013380:0000000000001323
#013321:0000000000000013
#014361:00530000000000000000000000000000
#014321:00230000
#0163b1:13
#016371:0000002300000000
#0173b1:0000000000000013
#018371:00530000000000000000000000000000
#0183b1:00230000
#020321:13
#020361:0000002300000000
#021321:0000000000000013
#022361:00530000000000000000000000000000
#022321:00230000
#023321:1300002300000000
#023361:00000053000000000000000000000000
#023321:00001323
#023351:0000000000530000
#0233b0:00001323
#023380:0000000000530000
#0243b0:13
#024380:00230000
#024350:00000013
#025320:23
#0253b1:13
#025381:00230000
#025320:00130000
#025350:0023
#026350:0013
#026320:00000023
#027320:13
#027350:00230000
#027380:0013
#0273b0:00000023
#027351:00000013
#028321:23
#0283b0:13
#028380:00230000
#028350:0013
#028320:00000023
#028381:00000013
#0293b1:23
#029320:14343434343434343434343400343434
#029360:00000034
#030320:34343434343434342400000000000000
#031380:0000000000000013
#0323b0:0023000000000000
#032351:0013000000000000
#032321:0000002300000000
#032380:0000001300000000
#0323b0:0000000000230000
#034320:13
#034350:00230000
#0343b0:0013
#034380:00000023
#035350:0000000000000013
#036320:00530000000000000000000000000000
#036350:00230000
#037350:00130000
#037320:0023
#037380:0000000000000013
#0383b0:0023000000000000
#038351:0013000000000000
#038321:0023
#039351:0000000000000013
#040321:0023000000000000
#0423b1:13
#042381:00230000
#042321:0013
#042351:00000023
#043381:0000000000000013
#0443b1:0023000000000000
#045361:0013000000000000
#045321:0023
#045370:0013
#0453b0:0000000000000023
#045321:0000000000000013
#046361:00330000
#046321:0023
#0463b0:00130000
#046370:0023
#0473b0:13
#048380:23
#0503b0:0000000000130023
#051380:0000001300230000
#052320:140034240000
#052360:003400000000
#0523a1:000000140034
#052361:000034
#0533a1:24
#053320:140034240000
#053360:003400000000
#0533a1:0014
#054381:22
#054320:14
#058320:24
#0573c1:12
#057381:00220000
#057381:0012
#0573c1:00000022
#0583a1:14
#0603a1:24
#062321:14240000
#0623a0:14240000
#062320:0000000000000013
#063350:0023000000000000
#065320:13230000
#0653b0:00001323
#0663b0:0000000000000013
#067380:0023000000000000
#068370:0013000000000000
#0683b0:0023
#068361:0013
#068321:0000000000000023
#0683b0:0000000000000013
#069370:00330000
#0693b0:0023
#069321:00130000
#069361:0023
#070321:13
#071351:23
#072321:0013
#072351:0000000000333300
#0723b1:0000000000000023
#0723b0:0013
#072380:0000000000333300
#072320:0000000000000023
#073320:0014
#073350:0000000000333300
#0733a0:0000000000000024
#0733a1:0014
#073381:0000000000333300
#073321:0000000000000024
#074321:0015
#074351:0000000000333300
#074391:0000000000000025
#074390:0015
#074380:0000000000333300
#074320:0000000000000025
#075320:1c
#075370:0052
#076370:52005300530053005300530053005300520000000000005253005300530052525300530053005300530053005300525253005300520000525300530052000052
#076360:00530053005300530053005300530053000000000000000000530053005300000053005300530053005300530053000000530053000000000053005300000000
#077370:53005300530053005300525253005300530053005300525253005300530052525300530053005300530053005300530000000000000000000000000000000000
#077360:00530053005300530053000000530053005300530053000000530053005300000053005300530053005300530053005300000000000000000000000000000000
#077320:0000002c
#085380:00000016
#0873b0:23
#087380:00001333
#088380:26
#087351:00000013
#088321:26
#0829b0:0013000000000000
#082970:00230000
#082960:0013
#082920:0000000000230000
#083920:00001323
#083960:0000000000530000
#084920:0013000000000000
#084960:00230000
#084970:0013
#0849b0:0000000000230000
