This file was generated by Ched 2.7.0.0.
#TITLE ""
#ARTIST ""
#DESIGNER ""
#DIFFICULTY 0
#PLAYLEVEL
#SONGID ""
#WAVE ""
#WAVEOFFSET 0
#JACKET ""
#REQUEST "ticks_per_beat 480"
#00002: 4
#BPM01: 158
#00008: 01
#TIL00: ""
#VOLUME: ""
#HISPEED 00
#MEASUREHS 00
#00018:16
#00212:16
#00418:14
#00410:41
#00518:14
#00814:14
#00914:14
#01314:14
#01418:14
#01512:14
#0161a:14
#01610:41
#0171a:14
#02012:14
#02112:14
#02614:14
#02718:14
#03018:14
#03114:14
#03212:0016
#03218:26
#03210:41
#03412:1616
#03518:1616
#03612:14
#03618:0014
#0381a:14
#03814:0014
#04014:14
#04018:0014
#04218:1414
#04314:1414
#04418:14
#04414:0014
#04614:14
#04618:0014
#0461f:11
#05214:14
#0521a:0014
#0541a:1414
#0541f:21
#05514:1414
#05510:41
#05618:14
#05612:0014
#05814:14
#0581a:0014
#0601a:14
#06012:0014
#06212:1414
#06318:1414
#06414:14
#0641a:0014
#06618:14
#06612:0014
#0671a:14
#06714:0014
#04712:14
#0471a:0014
#0681a:1414
#06810:41
#07012:1414
#07112:14
#07218:1414
#07318:14
#07414:1414
#07514:14
#0121a:24
#0241a:24
#02410:41
#02812:24
#05312:24
#03318:26
#0451a:24
#06512:24
#0691a:24
#006380:14
#007380:24
#010340:14
#011340:24
#0183a0:14
#0193a0:24
#022320:14
#023320:24
#0243a0:14
#0253a0:24
#028320:14
#029320:24
#033380:16362600
#037320:14342400
#0393a0:1424
#041320:14342400
#0453a0:14342400
#048340:14
#049320:24
#050380:14
#0513a0:24
#053320:14342400
#0573a0:14342400
#059320:1424
#061380:14342400
#065320:14342400
#0693a0:14342400
#0763a0:14
#0773a0:24
#078320:14
#079320:24
