This file was generated by Ched 2.7.0.0.
#TITLE ""
#ARTIST ""
#DESIGNER ""
#DIFFICULTY 0
#PLAYLEVEL
#SONGID ""
#WAVE ""
#WAVEOFFSET 0
#JACKET ""
#REQUEST "ticks_per_beat 480"
#00002: 4
#BPM01: 158
#00008: 01
#TIL00: ""
#VOLUME: ""
#HISPEED 00
#MEASUREHS 00
#0001b:13
#00019:0013
#00015:13
#00013:0013
#00114:13
#00112:0013
#0011a:13
#00118:0013
#0021b:13
#00219:0013
#00215:13
#00213:0013
#00314:13
#00312:0013
#0031a:13
#00318:0013
#00415:0000001300130000
#00418:0013
#0041b:00000013
#00412:0000000000000013
#0041a:14
#00410:41
#00518:13
#00515:0000000000000013
#00718:0013000000000000
#00715:13130000
#0071b:0000001300000000
#00818:0000001300130000
#00815:0013
#00812:14000013
#0081b:0000000000000013
#00915:13
#00918:0000000000000013
#01012:1300000014000013
#01018:0013001300000000
#01015:00130000
#0101b:00000013
#01218:00130000
#0121b:00001313
#01215:00001323
#01212:24230000
#0121a:24
#01312:13230000
#01318:0013001300000000
#01315:00001323
#0131b:0000000000130000
#01615:0000001300130000
#01618:0013
#0161b:00000013
#01612:0000000000000013
#0161a:24
#01610:41
#01718:13
#01712:0000000000000013
#0181b:1313
#01815:0013001300000000
#01812:0000000000130013
#01818:00130013
#02018:0000001300130000
#02015:0013
#02012:14000013
#0201b:0000000000000013
#02115:13
#0211b:0000000000000013
#02212:13001313
#02218:0013001300000013
#02215:00130000
#0221b:0000000000130000
#0231b:0013000000000000
#02315:13130000
#02318:0000001300000000
#02312:0013
#03312:0000260000000013
#03318:2626
#0341b:13000013
#03415:0013000000130000
#03418:00131300
#03412:0000001300000013
#03518:0013000000130000
#03515:00130013
#0351b:0000001300000013
#03512:0013
#0371b:0000000000000013
#03712:1616
#03718:00160000
#03812:13130013
#03818:0013000000000013
#0381b:0000001300130000
#03815:0013
#04015:0000001300001300
#0401b:0013
#04018:0000000000130000
#04012:2400000000000013
#0401a:24
#04215:0000000000000013
#04218:0000001400000000
#04213:54
#04212:0054000000000000
#04219:0054
#0421a:0000000000540000
#0431b:1313
#04318:0013000000130000
#04315:00130013
#04312:0000001300000013
#0551b:0000001300130000
#05515:0013000013000013
#05518:00130013
#05512:13
#05510:41
#05612:13
#05618:0000001300130013
#05615:00001313
#06218:0064000000640013
#06219:64646400
#0621a:0000006400000000
#06213:64646400
#06212:0064000000640000
#06214:0000006400000000
#0651b:0000000000000013
#06518:26
#06515:00260000
#06512:0026
#06615:13130000
#0661b:0013000000000000
#06618:0000001300130000
#06612:00001313
#0661a:0000000000000014
#06818:0000001300001300
#06812:2313
#06815:0000000000130000
#0681b:0000000000000013
#06810:41
#07015:00001313
#0701a:00001424
#07212:13
#07218:0013000000000000
#07213:00130000
#07214:0013
#0721a:0000000000130000
#07215:00000013
#07219:0000001300000000
#0721b:0000000000000013
#07312:1313
#07318:0013001300001300
#07315:0000130000130000
#0731b:0000000000000013
#00615:0013
#00618:0000000000130000
#00612:00000013
#0061b:0000000000000013
#01115:0013000000000000
#01118:13130000
#01112:0000001300000000
#01415:13130000
#01412:00001313
#01418:00001323
#0141b:13230000
#0151b:13230000
#01515:0013001300000000
#01518:00001323
#01512:0000000000130013
#01918:00130000
#01915:0000001300000000
#0191b:0013
#02518:1414
#02514:00140000
#02512:0000000000000013
#02412:0000001300000013
#0241b:0013
#02415:0000000000130000
#02418:24000013
#02410:41
#02618:1313
#02615:0013000000130000
#0261b:00130013
#02612:0000001300000013
#02718:0000001313000000
#02715:00000000000000130000000000000000
#02914:1414
#02918:00140000
#0291b:0000000000000013
#0281b:0000001300000013
#02812:0013
#02818:0000000000130000
#02815:00000013
#02814:24
#03015:1313
#03018:0013000000130000
#03012:00130013
#0301b:0000001300000013
#03112:0033133300331333
#0311b:0000000000331333
#03115:2313
#03118:0023
#03215:0000001300001300
#0321b:0013
#03218:0000000000130000
#03212:0000000000000013
#03210:41
#03612:1313
#03618:0000001300001300
#03615:0000000000130000
#0361b:0000000000000013
#03915:0000001313000000
#03918:00000000000000130000000000000000
#04118:1616
#04112:00160000
#04114:0000000000000014
#0441b:1300000000130000
#04415:0000001300001300
#04418:0000000013000013
#0451b:0000000000000013
#04512:2626
#04518:00260000
#04612:13000013
#04618:00131300
#0461b:0000001300000013
#04615:0013000000130000
#0461f:11
#04715:0013000000001300
#04718:0000130000000013
#04712:0000001300000000
#0471b:0000000000130000
#04812:14000014
#04814:0014
#04816:00140000
#04914:14
#04916:00140000
#04919:00000014
#05016:00140000
#0501a:00000014
#05018:0014
#05118:1414
#05116:00140000
#05412:1313
#05418:0013000000130000
#05415:00130013
#0541b:0000001300000013
#0541f:21
#05712:1600000000000013
#05715:00160000
#05718:0016
#0581b:13130013
#05815:0013000000130000
#05812:0000001300000013
#05818:0013
#05915:00130000000000130000000000000000
#05918:0000001313000000
#06312:0000130000130000
#0631b:1313
#06315:0013000000001300
#06318:0000001300000013
#06415:0000001300130013
#06418:00001313
#0641b:23
#06712:0014001400000000
#06718:00140023
#0671b:0000000000230000
#06715:0000000000000023
#06912:26000013
#06915:00260000
#06918:0026
#06917:0000000000000024
#07118:13130000
#07112:14240000
#07115:00001313
#0711a:00001424
#07618:12
#07415:0013000000000000
#07419:00130000
#07414:0000001300000000
#0741a:0013
#07413:0000000000130000
#0741b:00000013
#07412:0000000000000013
#07518:13130000
#07515:0013001300000000
#0751b:00001313
#07512:0000000000130013
#07816:12
#07716:00000012
#0771b:0052
#07918:00000012
#07913:0052
#06015:0000001300001300
#0601b:0013
#06018:0000000000130000
#06012:0000000000000013
#0601a:24
#06014:24
#06118:16
#06115:00160000
#06112:0016
#0611a:0000000000000024
#06114:0000000000000024
#05212:24
#0521a:24
#05316:24
#06852:63
#00558:53
#0075b:0000005300000000
#00955:63
#01052:0014
#01758:53
#0175b:0013
#02155:63
#02152:0013
#03858:0000000000000053
#05652:53
#06558:16
#06555:00160000
#06552:0016
#0045a:14
#00852:14
#01152:0000006300000000
#0165a:14
#01852:0000000000000063
#0195b:0063
#02352:0053
#02458:64
#02558:1414
#02554:00140000
#02652:0000000000000063
#02758:0063
#02954:1414
#02958:00140000
#02854:54
#03155:6363
#03152:00230023
#0315b:00000023
#03158:0053
#03258:14
#03254:14
#03358:1616
#03352:00160000
#03452:0000000000000013
#03652:63
#03752:1616
#03758:00160000
#03955:0063
#04052:14
#0405a:14
#04158:1616
#04152:00160000
#0445b:63
#04552:1616
#04558:00160000
#0465b:0000000000000013
#04752:0000001300000000
#04852:54000024
#04854:0054
#04856:00240000
#04954:54
#04956:00240000
#04959:00000064
#05252:14
#0525a:14
#05056:00240000
#0505a:00000024
#05058:0064
#05158:5454
#05156:00240000
#05356:00000014
#05752:16
#05755:00160000
#05758:0016
#05852:0000000000000063
#05955:00230000000000000000000000000000
#05958:0063
#0605a:54
#06054:54
#0665a:0000000000000014
#06752:0000001400000000
#06952:16
#06955:00160000
#06958:0016
#06957:0000000000000064
#0735b:0000000000000013
#07658:62
#07552:0000000000000013
#07856:52
#0125a:14
#01252:14
#02052:14
#0645b:63
#06258:0000000000140000
#06252:0000000000140000
#06158:16
#06155:00160000
#06152:0016
#005380:13
#0053b0:0000003323000000
#0063a0:14240000
#0073b0:0000001300000000
#007380:00000023
#009350:13
#009320:0000003323000000
#011320:0000001300000000
#011350:00000023
#017380:13
#0173b0:0000003323000000
#018320:0000000000000013
#019350:0023000000000000
#0193b0:0013
#019380:00000023
#021350:13
#021320:0000003323000000
#023320:0013
#023350:00000023
#024380:14
#0243a0:00240000
#026320:0000000000000013
#027350:00230000
#027380:0013
#0273b0:00000023
#028340:14
#028320:00240000
#031350:1333
#031320:0033333300333333
#032340:24
#031381:0013
#0313b1:0000000000333333
#032381:24
#036321:13
#036351:00230000
#038381:0000000000000013
#0393b1:00230000
#039351:0013
#039321:00000023
#0443b1:13
#044381:00230000
#048321:14000054
#048361:00540000
#048341:0034
#049341:34
#049361:00540000
#049321:0024
#049391:00000014
#050361:00540000
#050381:0034
#0503a1:00000054
#051381:3434
#051361:00540000
#0513a1:00000024
#053361:14343424
#056321:13
#056351:00230000
#058321:0000000000000013
#059351:00530000000000000000000000000000
#059321:00230000
#059381:0013
#0593b1:00000023
#0603a1:14
#060381:00240000
#060340:14
#060320:00240000
#0643b0:13
#064380:00230000
#068320:13
#068350:00230000
#069370:0000000000000014
#0703a0:00240000
#076380:12
#0773b0:0022
#078360:12
#079330:0022
#041940:0000000000000014
#042920:000000000000000000000000000000000000000000000000000000000000000000000000000000000000000000000000000000000000000000000000000000000000000000000000000000000000000000000000000000000000000000000000000000000000000000000000000000000000000000000000000000000000000000000000000000000000000000000000000000000000000000000000000000000000000000000000000000000000000000000000000000000000000000000000000000000000000000000000000000000000000000000000000000000000000000000000000000000000000000005454240000000000000000000000000000000000000000000000000000000000000000000000000000000000000000000000000000000000000000000000000000000000000000000000000000000000000000000000000000000000000000000000000000000000000000000000000000000000000000000000000000000000000000000000000000000000000000000000000000000000000000000000000000000000000000000000000000000000000000000000000000000000000000000000000000000000000000000000000000000000000000000000000000000000000000000000000000000000000000000000000000000000000000000000000000000000000000000000000000000000000000000000000000000000000000000000000000000000000000000000000000000000000000000000000000000000000000000000000000000000000000000000000000000000000000000000000000000000000000000000000000000000000000000000000000000000000000000000000000000000000000000000000000000000000000000000000000000000000000000000000000000000000000000000000000000000000000000000000000000000000000000000000000000000000000000000000000000000000000000000000000000000000000000000000000000000000000000000000000000000000000000000000000000000000000000000000000000000000000000000000000000000000000000000000000000000000000000000000000000000000000000000000000000000000000000000000000000000000000000000000000000000000000000000000000000000000000000000000000000000000000000000000000000000000000000000000000000000000000000000000000000000000000000000000000000000000000000000000000000000000000000000000000000000000000000000000000000000000000000000000000000000000000000000000000000000000000000000000000000000000000000000000000000000000000000000000000000000000000000000000000000000000000000000000000000000000000000000000000000000000000000000000000000000000000000000000000000000000000000000000000000000000000000000000000000000000000000000000000000000000000000000000000000000000000000000000000000000000000000000000000000000000000000000000000000000000000000000000000000000000000000000000000000000000000000000000000000000000000000000000000000000000000000000000000000000000000000000000000000000000000000000000000000000000000000000000000000000000000000000000000000000000000000000000000000000000000000000000000000000000000000000000000000000000000000000000000000000000000000000000000000000000000000000000000000000000000000000000000000000000000000000000000000000000000000000000000000000000000000000000000000000000000000000000000000000000000000000000000000000000000000000000000000000000000000000000000000000000000000000000000000000000000000000000000000000000000000000000000000000000000000000000000000000000000000000000000000000000000000000000000000000000000000000000000000000000000000000000000000000000000000000000000000000000000000000000000000000000000000000000000000000000000000000000000000000000000000000000000000000000000000000000000000000000000000000000000000000000000000000000000000000000000000000000000000000000000000000000000000000000000000000000000000000000000000000000000000000000000000000000000000000000000000000000000000000000000000000000000000000000000000000000000000000000000000000000000000000000000000000000000000000000000000000000000000000000000000000000000000000000000000000000000000000000000000000000000000000000000000000000000000000000000000000000000000000000000000000000000000000000000000000000000000000000000000000000000000000000000000000000000000000000000000000000000000000000000000000000000000000000000000000000000000000000000000000000000000000000000000000
#042980:0000001400000000
#0429a0:000000000000000000000000000000000000000000000000000000000000000000000000000000000000000000000000000000000000000000000000000000000000000000000000000000000000000000000000000000000000000000000000000000000000000000000000000000000000000000000000000000000000000000000000000000000000000000000000000000000000000000000000000000000000000000000000000000000000000000000000000000000000000000000000000000000000000000000000000000000000000000000000000000000000000000000000000000000000000000000000000000000000000000000000000000000000000000000000000000000000000000000000000000000000000000000000000000000000000000000000000000000000000000000000000000000000000000000000000000000000000000000000000000000000000000000000000000000000000000000000000000000000000000000000000000000000000000000000000000000000000000000000000000000000000000000000000000000000000000000000000000000000000000000000000000000000000000000000000000000000000000000000000000000000000000000000000000000000000000000000000000000000000000000000000000000000000000000000000000000000000000000000000000000000000000000000000000000000000000000000000000000000000000000000000000000000000000000000000000000000000000000000000000000000000000000000000000000000000000000000000000000000000000000000000000000000000000000000000000000000000000000000000000000000000000000000000000000000000000000000000000000000000000000000000000000000000000000000000000000000000000000000000000000000000000000000000000000000000000000000000000000000000000000000000000000000000000000000000000000000000000000000000000000000000000000000000000000000000000000000000000000000000000000000000000000000000000000000000000000000000000000000000000000000000000000000000000000000000000000000000000000000000000000000000000000000000000000000000000000000000000000000000000000000000000000000000000000000000000000000000000000000000000000000000000000000000000000000000000000000000000000000000000000000000000000000000000000000000000000000000000000000000000000000000000000000000000000000000000000000000000000000000000000000000000000000000000000000000000000000000000000000000000000000000000000000000000000000000000000000000000000000000000000000000000000000000000000000000000000000000000000000000000000000000000000000000000000000000000000000000000000000000000000000000000000000000000000000000000000000000000000000000000000000000000000000000000000000000000000000000000000000000000000000000000000000000000000000000000005454240000000000000000000000000000000000000000000000000000000000000000000000000000000000000000000000000000000000000000000000000000000000000000000000000000000000000000000000000000000000000000000000000000000000000000000000000000000000000000000000000000000000000000000000000000000000000000000000000000000000000000000000000000000000000000000000000000000000000000000000000000000000000000000000000000000000000000000000000000000000000000000000000000000000000000000000000000000000000000000000000000000000000000000000000000000000000000000000000000000000000000000000000000000000000000000000000000000000000000000000000000000000000000000000000000000000000000000000000000000000000000000000000000000000000000000000000000000000000000000000000000000000000000000000000000000000000000000000000000000000000000000000000000000000000000000000000000000000000000000000000000000000000000000000000000000000000000000000000000000000000000000000000000000000000000000000000000000000000000000000000000000000000000000000000000000000000000000000000000000000000000000000000000000000000000000000000000000000000000000000000000000000000000000000000000000000000000000000000000000000000000000000000000000000000000000000000000000000000000000000000000000000000000000000000000000000000000000000000000000000000000000000000000000000000000000000000000000000000000000000000000000000000000000000000000000000000000000000000000000000000000000000000000000000000000000000000000000000000000000000
#0619a0:0000000000000014
#062980:000000000000000000000000000000000000000000000000000000000000000000000000000000000000000000000000000000000000000000000000000000000000000000000000000000000000000000000000000000000000000000000000000000000000000000000000000000000000000000000000000000000000000000000000000000000000000000000000000000000000000000000000000000000000000000000000000000000000000000000000000000000000000000000000000000000000000000000000000000000000000000000000000000000000000000000000000000000000000000000000540000000000000000000000000000000000000000000000000000000000000000000000000000000000000000000000000000000000000000000000000000000000000000000000000000000000000000000000000000000000000000000000000000000000000000000000000000000000000000000000000000000000000000000000000000000000000000000000000000000000000000000000000000000000000000000000000000000000000000000000000000000000000000000000000000000000000000000000000000000000000000000000000000000000000000000000000000000000000000000000000000000000000000000000000000000000000000000000000000000000000000000000000000000000000000000000000000000000000000000000000000000000000000000000000000000000000000000000000000000000000000000000000000000000000000000000000000000000000000000000000000000000000000000000000000000000000000000000000000000000000000000000000000000000000000000000000000000000000000000000000000000000000000000000000000000000000000000000000000000000000000000000000000000000000000000000000000000000000000000000000000000000000000000000000000000000000000000000000000000000000000000000000000000000000000000000000000000000000000000000000000000000000000000000000000000000000000000000000000000000000000000000000000000000000000000000000000000000000000000000000000000000000000000000000000000000000000000000000000000000000000000000000000000000000000000000000000000000000000000000000000000000000000000000000000000000000000000000000000000000000000000000000000000000000000000000000000000000000000000000000000000000000000000000000000000000000000000000000000000000000000000000000000000000000000000000000000000000000000000000000000000000000000000000000000000000000000000000000000000000000000000000000000000000000000000000000000000000000000000000000000000000000000000000000000000000000000000000000000000000000000000000000000000000000000000000000000000000000000000000000000000000000000000000000000000000000000000000000000000000000000000000000000000000000000000000000000000000000054545454240000000000000000000000000000000000000000000000000000000000000000000000000000000000000000000000000000000000000000000000000000000000000000000000000000000000000000000000000000000000000000000000000000000000000000000000000000000000000000000000000000000000000000000000000000000000000000000000000000000000000000000000000000000000000000000000000000000000000000000000000000000000000000000000000000000000000000000000000000000000000000000000000000000000000000000000000000000000000000000000000000000000000000000000000000000000000000000000000000000000000000000000000000000000000000000000000000000000000000000000000000000000000000000000000000000000000000000000000000000000000000000000000000000000000000000000000000000000000000000000000000000000000000000000000000000000000000000000000000000000000000000000000000000000000000000000000000000000000000000000000000000000000000000000000000000000000000000000000000000000000000000000000000000000000000000000000000000000000000000000000000000000000000000000000000000000000000000000000000000000000000000000000000000000000000000000000000000000000000000000000000000000000000000000000000000000000000000000000000000000000000000000000000000000000000000000000000000000000000000000000000000000000000000000000000000000000000000000000000000000000000000000000000000000000000000000000000000000000000000000000000000000000000000000000000000000000000000000000000000000000000000000000000000000000000000000000000000000000000000000
#0629a0:0000005400000000
#061941:0000000000000014
#062921:000000000000000000000000000000000000000000000000000000000000000000000000000000000000000000000000000000000000000000000000000000000000000000000000000000000000000000000000000000000000000000000000000000000000000000000000000000000000000000000000000000000000000000000000000000000000000000000000000000000000000000000000000000000000000000000000000000000000000000000000000000000000000000000000000000000000000000000000000000000000000000000000000000000000000000000000000000000000000000000000540000000000000000000000000000000000000000000000000000000000000000000000000000000000000000000000000000000000000000000000000000000000000000000000000000000000000000000000000000000000000000000000000000000000000000000000000000000000000000000000000000000000000000000000000000000000000000000000000000000000000000000000000000000000000000000000000000000000000000000000000000000000000000000000000000000000000000000000000000000000000000000000000000000000000000000000000000000000000000000000000000000000000000000000000000000000000000000000000000000000000000000000000000000000000000000000000000000000000000000000000000000000000000000000000000000000000000000000000000000000000000000000000000000000000000000000000000000000000000000000000000000000000000000000000000000000000000000000000000000000000000000000000000000000000000000000000000000000000000000000000000000000000000000000000000000000000000000000000000000000000000000000000000000000000000000000000000000000000000000000000000000000000000000000000000000000000000000000000000000000000000000000000000000000000000000000000000000000000000000000000000000000000000000000000000000000000000000000000000000000000000000000000000000000000000000000000000000000000000000000000000000000000000000000000000000000000000000000000000000000000000000000000000000000000000000000000000000000000000000000000000000000000000000000000000000000000000000000000000000000000000000000000000000000000000000000000000000000000000000000000000000000000000000000000000000000000000000000000000000000000000000000000000000000000000000000000000000000000000000000000000000000000000000000000000000000000000000000000000000000000000000000000000000000000000000000000000000000000000000000000000000000000000000000000000000000000000000000000000000000000000000000000000000000000000000000000000000000000000000000000000000000000000000000000000000000000000000000000000000000000000000000000000000000000000000000000000000000000054545454240000000000000000000000000000000000000000000000000000000000000000000000000000000000000000000000000000000000000000000000000000000000000000000000000000000000000000000000000000000000000000000000000000000000000000000000000000000000000000000000000000000000000000000000000000000000000000000000000000000000000000000000000000000000000000000000000000000000000000000000000000000000000000000000000000000000000000000000000000000000000000000000000000000000000000000000000000000000000000000000000000000000000000000000000000000000000000000000000000000000000000000000000000000000000000000000000000000000000000000000000000000000000000000000000000000000000000000000000000000000000000000000000000000000000000000000000000000000000000000000000000000000000000000000000000000000000000000000000000000000000000000000000000000000000000000000000000000000000000000000000000000000000000000000000000000000000000000000000000000000000000000000000000000000000000000000000000000000000000000000000000000000000000000000000000000000000000000000000000000000000000000000000000000000000000000000000000000000000000000000000000000000000000000000000000000000000000000000000000000000000000000000000000000000000000000000000000000000000000000000000000000000000000000000000000000000000000000000000000000000000000000000000000000000000000000000000000000000000000000000000000000000000000000000000000000000000000000000000000000000000000000000000000000000000000000000000000000000000000000000
#062941:0000005400000000
